Каникулы с Дереком / Vacation with Derek (Майкл МакГоун / Michael McGowan) [2010, Канада, Комедия, семейный, приключения, DVB] MVO (New Media)

 
Автор Сообщение

TorrentFilm ®

Пол:

Стаж: 2 года

Сообщений: 7741



Награды: Нет

Торрент-статистика

Создавать темы 24-Апр-2015 00:02

[Цитировать]

Каникулы с Дереком / Vacation with Derek
Страна: Канада
Жанр: Комедия, семейный, приключения
Год выпуска: 2010
Продолжительность: 01:29:34
Перевод: Профессиональный (многоголосый закадровый) New Media для т/к Gulli
Cубтитры: нет
Оригинальная аудиодорожка: нет
Режиссер: Майкл МакГоун / Michael McGowan
В ролях: Эшли Леггат, Майкл Ситер, Джордан Тодоси, Эриель Уоллер, Дэниэл Магдер, Джой Тэннер, Джон Ралстон
Описание: Приключения детей семьи Макдоналд-Вентури во время летних каникул на ферме у своей бабушки... Фильм на основе канадского телесериал "Жизнь с Дереком" главными героями которого стали Майкл Ситер в роли Дерека Вентури, и Эшли Леггат в роли Кэйси МакДональд.
Сэмпл: https://www.sendspace.com/file/y577kc
Качество видео: DVB
Формат видео: MPG
Видео: MPEG2 720:576 4:3 2671 Кбит/сек 25,000 кадров/сек
Аудио: MPEG Audio 192 Кбит/сек 48,0 КГц 2 канала

MediaInfo

Общее
Полное имя : Каникулы с Дереком.mpg
Формат : MPEG-PS
Размер файла : 1,83 Гбайт
Продолжительность : 1 ч. 29 м.
Режим общего битрейта : Переменный
Общий поток : 2921 Кбит/сек
Видео
Идентификатор : 224 (0xE0)
Формат : MPEG Video
Версия формата : Version 2
Профиль формата : Main@Main
Параметр BVOP формата : Да
Параметр матрицы формата : Выборочная
Параметр GOP формата : Variable
Продолжительность : 1 ч. 29 м.
Вид битрейта : Переменный
Битрейт : 2671 Кбит/сек
Максимальный битрейт : 15,0 Мбит/сек
Ширина : 720 пикселей
Высота : 576 пикселей
Соотношение сторон : 4:3
Частота кадров : 25,000 кадров/сек
Стандарт вещания : PAL
Цветовое пространство : YUV
Субдискретизация насыщенности : 4:2:0
Битовая глубина : 8 бит
Тип развёртки : Чересстрочная
Порядок развёртки : Верхнее поле первое
Метод сжатия : С потерями
Бит/(Пиксели*Кадры) : 0.258
Временной код первого кадра : 00:00:00:00
Оригинал временного кода : Group of pictures header
Размер потока : 1,67 Гбайт (91%)
Аудио
Идентификатор : 192 (0xC0)
Формат : MPEG Audio
Версия формата : Version 1
Профиль формата : Layer 2
Продолжительность : 1 ч. 29 м.
Вид битрейта : Постоянный
Битрейт : 192 Кбит/сек
Каналы : 2 канала
Частота : 48,0 КГц
Метод сжатия : С потерями
Задержка видео : 15 мс.
Размер потока : 123 Мбайт (7%)

Скриншот c названием фильма

Скриншоты

Данный фильм впервые раздаётся на трекере. Запись потока *.ts произведена тюнером цифрового телевидения. В связи с тем, что не все плееры воспроизводят поток *.ts (MPEG-TS) , в данном видеофайле мной был сделан ремукс потока *.ts (MPEG-TS) в *.mpg (MPEG-PS) программой VideoReDo.
[Профиль] [ЛС]

Создавать темы 06-Авг-2015 22:35 (спустя 3 месяца 12 дней)

Топик был перенесен из форума Фильмы до 2014 года в форум Фильмы до 2012 года
sergej644
 

Создавать темы 12-Июн-2016 07:54 (спустя 1 год 1 месяц)

Топик был перенесен из форума Фильмы 2011 года в форум Фильмы 2010 года
Russian Mafia
 
Показать сообщения:    

Текущее время: Сегодня 20:25

Часовой пояс: GMT



Вы не можете начинать темы
Вы не можете отвечать на сообщения
Вы не можете редактировать свои сообщения
Вы не можете удалять свои сообщения
Вы не можете голосовать в опросах
Вы не можете прикреплять файлы к сообщениям
Вы не можете скачивать файлы