Каникулы мечты / What We Did on Our Holiday (2014) BDRip 1080p | P

 
Автор Сообщение

sergej644 ®

Пол:

Стаж: 4 года 11 месяцев

Сообщений: 6038

Откуда: Soviet Union



Награды: Нет

Торрент-статистика

Создавать темы 25-Июн-2015 22:32

[Цитировать]

Информация о фильме
Название: Каникулы мечты
Оригинальное название: What We Did on Our Holiday
Год выхода: 2014
Жанр: драма, комедия
Режиссер: Энди Хэмилтон, Гай Дженкин
В ролях: Розамунд Пайк, Дэвид Теннант, Билли Коннолли, Бен Миллер, Амелия Баллмор, Эмилия Джонс, Бобби Соллдридж, Harriet Turnbull, Селия Имри, Аннетт Кросби
О фильме: Что может быть лучше большого семейного праздника в Шотландии? Вся родня собирается на празднование юбилея дедушки Горди. Дуглас и Эби отправляются в путешествие. Но как скрыть семейные секреты, если у вас три болтливых ребенка?

Выпущено: Великобритания / BBC Films, Lip Sync Productions, Origin Pictures
Продолжительность: 01:35:27
Перевод: Профессиональный (многоголосый, закадровый)
Файл
Качество: BDRip 1080p
Формат: MKV
Видео: MPEG4/AVC, 12.7 Мбит/сек, 1920х1036 (1.85:1), 23.976 кадра/сек
Аудио 1: AC3, 2 канала, 384 Кбит/сек | Русский
Аудио 2: AC3, 6 каналов, 640 Кбит/сек | Английский
Субтитры: Русские, английские (Full, SDH)
Навигация по главам: Есть

MediaInfo:

Общее
Уникальный идентификатор : 184037008685926434809615366218068693272 (0x8A743D14422380CD907881492F069118)
Полное имя : What We Did on Our Holiday. (2014) BDRip 1080p.mkv
Формат : Matroska
Версия формата : Version 2
Размер файла : 9,33 Гбайт
Продолжительность : 1 ч. 35 м.
Общий поток : 14,0 Мбит/сек
Название фильма : What We Did on Our Holiday. 2014
Дата кодирования : UTC 2015-06-25 16:35:10
Программа кодирования : mkvmerge v5.8.0 ('No Sleep / Pillow') built on Sep 2 2012 15:37:04
Библиотека кодирования : libebml v1.2.3 + libmatroska v1.3.0
Видео
Идентификатор : 1
Формат : AVC
Формат/Информация : Advanced Video Codec
Профиль формата : High@L4.1
Параметр CABAC формата : Да
Параметр ReFrames формата : 5 кадров
Идентификатор кодека : V_MPEG4/ISO/AVC
Продолжительность : 1 ч. 35 м.
Битрейт : 12,7 Мбит/сек
Ширина : 1920 пикселей
Высота : 1036 пикселей
Соотношение сторон : 1,85:1
Режим частоты кадров : Постоянный
Частота кадров : 23,976 кадра/сек
Цветовое пространство : YUV
Субдискретизация насыщенности : 4:2:0
Битовая глубина : 8 бит
Тип развёртки : Прогрессивная
Бит/(Пиксели*Кадры) : 0.266
Размер потока : 8,46 Гбайт (91%)
Заголовок : BluEvo
Библиотека кодирования : x264 core 133 r2334+704+50 a7549b7 tMod [8-bit@all X86_64]
Настройки программы : opencl=1 / cabac=1 / ref=5 / deblock=1:-3:-3 / analyse=0x3:0x133 / me=umh / subme=11 / psy=1 / fade_compensate=0.00 / psy_rd=1.10:0.25 / mixed_ref=1 / me_range=64 / chroma_me=1 / trellis=2 / 8x8dct=1 / cqm=0 / deadzone=21,11 / fast_pskip=0 / chroma_qp_offset=-4 / threads=12 / lookahead_threads=3 / sliced_threads=0 / nr=0 / decimate=1 / interlaced=0 / bluray_compat=0 / constrained_intra=0 / fgo=0 / bframes=16 / b_pyramid=2 / b_adapt=2 / b_bias=0 / direct=3 / weightb=1 / open_gop=0 / weightp=2 / keyint=240 / keyint_min=24 / scenecut=40 / intra_refresh=0 / rc_lookahead=200 / rc=crf / mbtree=1 / crf=17.1500 / qcomp=0.60 / qpmin=0 / qpmax=69 / qpstep=4 / ip_ratio=1.40 / aq=2:1.00 / aq-sensitivity=10.00 / aq-factor=1.00:1.00:1.00 / aq2=0 / aq3=0
Язык : English
Default : Да
Forced : Нет
Аудио #1
Идентификатор : 2
Формат : AC-3
Формат/Информация : Audio Coding 3
Расширение режима : CM (complete main)
Параметр Endianness формата : Big
Идентификатор кодека : A_AC3
Продолжительность : 1 ч. 35 м.
Вид битрейта : Постоянный
Битрейт : 384 Кбит/сек
Каналы : 2 канала
Расположение каналов : Front: L R
Частота : 48,0 КГц
Битовая глубина : 16 бит
Метод сжатия : С потерями
Размер потока : 262 Мбайт (3%)
Заголовок : MVO | Line
Язык : Russian
Default : Да
Forced : Нет
Аудио #2
Идентификатор : 3
Формат : AC-3
Формат/Информация : Audio Coding 3
Расширение режима : CM (complete main)
Параметр Endianness формата : Big
Идентификатор кодека : A_AC3
Продолжительность : 1 ч. 35 м.
Вид битрейта : Постоянный
Битрейт : 640 Кбит/сек
Каналы : 6 каналов
Расположение каналов : Front: L C R, Side: L R, LFE
Частота : 48,0 КГц
Битовая глубина : 16 бит
Метод сжатия : С потерями
Размер потока : 437 Мбайт (5%)
Заголовок : Original
Язык : English
Default : Нет
Forced : Нет
Текст #1
Идентификатор : 4
Формат : UTF-8
Идентификатор кодека : S_TEXT/UTF8
Идентификатор кодека/Информация : UTF-8 Plain Text
Заголовок : Full
Язык : Russian
Default : Нет
Forced : Нет
Текст #2
Идентификатор : 5
Формат : UTF-8
Идентификатор кодека : S_TEXT/UTF8
Идентификатор кодека/Информация : UTF-8 Plain Text
Заголовок : Full
Язык : English
Default : Нет
Forced : Нет
Текст #3
Идентификатор : 6
Формат : UTF-8
Идентификатор кодека : S_TEXT/UTF8
Идентификатор кодека/Информация : UTF-8 Plain Text
Заголовок : SDH
Язык : English
Default : Нет
Forced : Нет
Меню
00:00:00.000 : en:00:00:00.000
00:08:18.081 : en:00:08:18.081
00:15:24.590 : en:00:15:24.590
00:22:36.897 : en:00:22:36.897
00:31:19.377 : en:00:31:19.377
00:37:51.311 : en:00:37:51.311
00:45:47.870 : en:00:45:47.870
00:52:39.239 : en:00:52:39.239
01:01:47.454 : en:01:01:47.454
01:07:24.749 : en:01:07:24.749
01:15:55.426 : en:01:15:55.426
01:25:00.679 : en:01:25:00.679
-

Скриншоты

[Профиль] [ЛС]
Показать сообщения:    

Текущее время: Сегодня 06:28

Часовой пояс: GMT



Вы не можете начинать темы
Вы не можете отвечать на сообщения
Вы не можете редактировать свои сообщения
Вы не можете удалять свои сообщения
Вы не можете голосовать в опросах
Вы не можете прикреплять файлы к сообщениям
Вы не можете скачивать файлы