Каникулы любви / Les vacances de l'amour/ Серии: 01,02,06,08,09,011-014-016-019,24-26-28,030,031,033-37,39(160) (Патрик Ле Гуэн / Анри Асбани / Бруно Бувье) ( Pat Le Cuen ) [ 2004-2006, Молодежный сериал, SATRip] MVO [Gulli] + Original

 
Автор Сообщение

Белочка ®

Пол:

Стаж: 5 лет 1 месяц

Сообщений: 2089



Награды: 1 (Подробнее)

Girls (Количество: 1)
Торрент-статистика

Создавать темы 15-Ноя-2014 22:48

[Цитировать]

Каникулы любви / Les vacances de l'amour(эпизоды#1,2,6,8,9,11-14,016-019,24-26-28,030,031,033-37,39 из 160)
Год выпуска: 1996-2004
Страна: Франция
Жанр: молодежный сериал
Продолжительность: ~ 52 мин.
Перевод: Профессиональный многоголосый) [Gulli]
Режиссеры: Патрик Ле Гуэн, Энри Асбани, Бруно Бувье, Филипп Лаяни.
В ролях: Элен Ролле, Исабэлль Буисс, Патрик Пюидэба, Лали Мениан, Лор Гибэр, Филипп Вассер, Рошелль Рэдфилд, Себастьен Рок, Том Шахт, Мануэла Лопез, Линда Лакост, Оливье Казадезю, Карин Лолишон Эва Пеирье
Описание: «Каникулы Любви» — молодёжный телесериал, являющийся третьей частью тетралогии "Элен и ребята". Выиграв билет в лотерею, пять старых добрых друзей попадают на остров, где им суждено провести каникулы. Ребят больше не интересует музыка, девочкам больше не хочется просиживать дни напролет в кафе и спортзалах. Они повзрослели. Вскоре, красота французской ривеьры и безудержное желание отдохнуть от суеты Парижа заставляет друзей обосноваться там и заняться бизнесом. Но не все так просто. У острова свои правила. Жизнь там полна приключений. Криминальные разборки, безудержная страсть, измены и предательства ждут друзей в чистых водах ЛавАйленда.
Качество: SATRip
Формат: AVI
Видео кодек: XviD
Аудио кодек: MP3
Видео: 720x416 (1.73:1), 25 fps, XviD MPEG-4 ~1268 kbps avg, 0.17 bit/pixel
Аудио: Audio #1: 48 kHz, MPEG Layer 3, 2 ch, ~128.00 kbps avg
Аудио 2: Audio #2: 48 kHz, MPEG Layer 3, 2 ch, ~128.00 kbps avg
MI
General
Complete name : G:\Серёге\LesVaganes\Les Vacances de l'Amour 001.avi
Format : AVI
Format/Info : Audio Video Interleave
File size : 547 MiB
Duration : 49mn 40s
Overall bit rate : 1 540 Kbps
Movie name : Каникулы Любви - Сюрприз (эпизод#001)
Writing application : Каникулы Любви - Сюрприз (эпизод#001)
Video
ID : 0
Format : MPEG-4 Visual
Format profile : Advanced Simple@L5
Format settings, BVOP : Yes
Format settings, QPel : No
Format settings, GMC : No warppoints
Format settings, Matrix : Default (MPEG)
Muxing mode : Packed bitstream
Codec ID : XVID
Codec ID/Hint : XviD
Duration : 49mn 40s
Bit rate : 1 269 Kbps
Width : 720 pixels
Height : 416 pixels
Display aspect ratio : 16:9
Frame rate : 25.000 fps
Resolution : 8 bits
Colorimetry : 4:2:0
Scan type : Progressive
Bits/(Pixel*Frame) : 0.170
Stream size : 451 MiB (82%)
Writing library : XviD 1.2.1 (UTC 2008-12-04)
Audio #1
ID : 1
Format : MPEG Audio
Format version : Version 1
Format profile : Layer 3
Format_Settings_Mode : Joint stereo
Format_Settings_ModeExtension : MS Stereo
Codec ID : 55
Codec ID/Hint : MP3
Duration : 49mn 40s
Bit rate mode : Constant
Bit rate : 128 Kbps
Channel(s) : 2 channels
Sampling rate : 48.0 KHz
Stream size : 45.5 MiB (8%)
Alignment : Aligned on interleaves
Interleave, duration : 40 ms (1.00 video frame)
Interleave, preload duration : 504 ms
Audio #2
ID : 2
Format : MPEG Audio
Format version : Version 1
Format profile : Layer 3
Format_Settings_Mode : Joint stereo
Format_Settings_ModeExtension : MS Stereo
Codec ID : 55
Codec ID/Hint : MP3
Duration : 49mn 40s
Bit rate mode : Constant
Bit rate : 128 Kbps
Channel(s) : 2 channels
Sampling rate : 48.0 KHz
Stream size : 45.5 MiB (8%)
Alignment : Aligned on interleaves
Interleave, duration : 40 ms (1.00 video frame)
Interleave, preload duration : 504 ms
File: Les Vacances de l'Amour 001.avi
Filesize: 547.04 Mb ( 573 609 984 bytes )
Play length: 00:49:40.320 (74508 frames)
Subtitles: Not Present
Video: 720x416 (1.73:1), 25 fps, XviD MPEG-4 ~1268 kbps avg, 0.17 bit/pixel
Аудио[RUS]: Audio #1: 48 kHz, MPEG Layer 3, 2 ch, ~128.00 kbps avg
Аудио[FR]: Audio #2: 48 kHz, MPEG Layer 3, 2 ch, ~128.00 kbps avg
СэмплЭпизод-гид по сериалу
Эпизод#001: Сюрпризы
Эпизод#002: Тайна
Эпизод#006:Печальные расставания
Эпизод#008:Долг
Эпизод#009:Надежда умирает последней
Эпизод#011:Ребёнок
Эпизод#012:Звезда "часть первая"
Эпизод#013:Звезда "часть вторая"
Эпизод#014:Грязное дело "часть первая"
Эпизод#016:Возвращение
Эпизод#017:Срочный вылет
Эпизод#018:Властелин сердец
Эпизод#019:Дело дона Бордоне(часть1)
Эпизод#024(1):Гостья(часть1)
Эпизод#025(2):Гостья(часть2)
Эпизод#026(1):Сора(часть1)
Эпизод#027(2):Сора(часть2)
Эпизод#028(1):Болезнь любви(часть1)
Эпизод#030:Чудесная рыбалка
Эпизод#031:Орешек
Эпизод#033:Тайна Жанны(часть1)
Эпизод#034:Тайна Жанны(часть2)
Эпизод#035:Тайна Жанны(часть3)
Эпизод#036:Дуэль
Эпизод#037:Взрывоопасный укенд
Эпизод#039:Деньги
Скриншоты
[Профиль] [ЛС]
Показать сообщения:    

Текущее время: Сегодня 07:01

Часовой пояс: GMT



Вы не можете начинать темы
Вы не можете отвечать на сообщения
Вы не можете редактировать свои сообщения
Вы не можете удалять свои сообщения
Вы не можете голосовать в опросах
Вы не можете прикреплять файлы к сообщениям
Вы не можете скачивать файлы