Каникулы Любви / Les vacances de l'amour / Сезон: 3, 4 (5) / Серии: 47, 48, 62, 76-78, 81, 83-142 (160) (Анри Асбани) [1997-2001, Детектив, Мелодрама, DVDRip, SATRip] Original + Rus Sub (Прибой, Ю. Лютова, А. Касьяненко)

 
Автор Сообщение

Белочка ®

Пол:

Стаж: 5 лет 1 месяц

Сообщений: 2089



Награды: 1 (Подробнее)

Girls (Количество: 1)
Торрент-статистика

Создавать темы 15-Ноя-2014 23:10

[Цитировать]

Каникулы Любви / Les vacances de l'amour (серии: 47, 48, 62, 76-78, 81, 83-142)
Год выпуска: 1997-2001
Страна: Франция
Жанр: Детектив, Мелодрама
Продолжительность: 67 x 00:50:00
Перевод: Субтитры
Русские субтитры: есть
Режиссёр: Анри Асбани
В ролях: Изабель Буис (Жан), Патрик Пюидеба (Николя), Элен Ролле (Элен), Лор Гибер (Бенедикт), Том Шахт (Джимми), Филипп Васёр (Жозе), Лали Меньян (Лали), Рошель Редфилд (Джоанна), Людовик ван Дорм (Стефан), Эв Перьё (Эва Ватсон), Серж Жискьер (Питер Ватсон), Дона Гибер (Матье), Мишель Роб (Жан-Поль), Лакшанта Абенаяк (Руди), Аннет Шрайбер (Синтия), Одри Мур (Одри МакАллистер), Бенуа Соль (Давид), Аньес Досси (Вера)
Описание: "Каникулы Любви" — молодёжный телесериал, являющийся третьей частью тетралогии "Элен и ребята". Ребят больше не интересует музыка, девочкам больше не хочется просиживать дни напролет в кафе и спортзалах. Они повзрослели. Красота французской ривьеры и безудержное желание отдохнуть от суеты Парижа заставляет друзей обосноваться там и заняться бизнесом. Но не все так просто. У острова свои правила. Жизнь там полна приключений. Криминальные разборки, безудержная страсть, измены и предательства ждут друзей в чистых водах ЛавАйленда.
Запись и рипы: Прибой
Перевод и субтитры: 47, 48, 62, 76-78, 81, 83-90, 96-142 (Прибой);
91-95 (О. Павловская)
103, 104, 107, 108, 111, 116, 120, 121, 123-142 (Ю. Лютова, В. Иванова, М.Федорова)

Качество: DVDRip (только 47, 48 серии), SATRip
Формат: AVI
Видео кодек: XviD
Аудио кодек: MP3
Видео: Xvid MPEG-4, 704x432 (720x448), 704x400 (с 135-й серии), 25 fps, 1695 kbps, 0.223 bit/pixel
Аудио: MP3, 48000 Hz, 2 ch, 128 kbps [fr]
Эпизод-лист
#47 Серийный убийца (Tueur en s�rie)
#48 Свидетель (Le t�moin)
#62 Потерянный ребёнок (L'enfant perdu)
#76 Парадизио (Paradisio)
#77 Фокусник (Le magicien)
#78 Мишень (La cible)
#81 Опасная страсть (Passion dangereuse)
#83 Красная дорожка (Tapis rouge)
#84 Малышка и 2 умника (La puce et deux cerveaux)
#85 Всё плохо (�a tourne mal)
#86 Покерный убийца (Poker tueur)
#87 Роковые женщины (Femmes fatales)
#88 Сокровище или жизнь (Le tr�sor ou la vie)
#89 Смертельная сделка (Deal mortel)
#90 Совсем другая история (Une autre histoire)
#91 Возвращение (Retour)
#92 Опасные пути (Une chemins du hasard)
#93 Скорая помощь (Urgences)
#94 Обвинение (Accusation)
#95 Волны страсти (Vagues de passion)
#96 Кома (Coma)
#97 Побочные эффекты (D�rives)
#98 Судьбоносное отсутствие (Absence fatale)
#99 Между жизнью и смертью (Entre la vie et la mort)
#100 Ожидания (Attentes)
#101 Надежды (Des espoirs)
#102 Новый старт (Envols)
#103 Катастрофы (Naufrages)
#104 Спасение (Sauvetage)
#105 Повторный старт (Reprise)
#106 Проблески (�claircies)
#107 Взрыв (D�tente)
#108 Революция (R�volution)
#109 Новая кровь (Sang neuf)
#110 Мёртвый город (Ville morte)
#111 Малыш (Un b�b�)
#112 Ломка (Manques)
#113 Путешествия (Voyages)
#114 Тяга к жизни (Le go�t de vivre)
#115 Разрывы (D�chirements)
#116 Похищение (Enl�vement)
#117 Насилие (Violence)
#118 Неизбежность (Fatalit�)
#119 Поиски (Recherches)
#120 Отчаяние (Sans espoir)
#121 Всегда рядом (Toujours l�)
#122 Несчастный случай (Accident)
#123 Как будто... (Comme si...)
#124 Кузина (Cousine)
#125 Ограбление (Cambriolage)
#126 Побег (Fuite)
#127 Побег (�vasions)
#128 Преследование (Poursuites)
#129 Облегчение (D�livrance)
#130 Неожиданная развязка (Coup de th��tre)
#131 Возвращение (Retours)
#132 Перекрёстные шаги (Chass�-crois�)
#133 Накануне праздника (Veille de f�te)
#134 Прибытие (Arriv�es)
#135 Слишком много счастья (Trop de bonheur)
#136 Обман (Superch�rie)
#137 Каракас (Caracas)
#138 Возвращение (La revenante)
#139 Страсти (Passions)
#140 Неосмотрительность (D�raison)
#141 Конспирация (Conspirations)
#142 До бесконечности (� l'infini)
MediaInfo DVDRip (47-48 серии)
Format : AVI
Format/Info : Audio Video Interleave
File size : 571 MiB
Duration : 48mn 15s
Overall bit rate : 1 653 Kbps
Movie name : #47 Серийный убийца
Writing application : VirtualDubMod 1.5.10.2 (build 2540/release)
Writing library : VirtualDubMod build 2540/release
Video
ID : 0
Format : MPEG-4 Visual
Format profile : Advanced Simple@L5
Format settings, BVOP : 2
Format settings, QPel : No
Format settings, GMC : No warppoints
Format settings, Matrix : Default (MPEG)
Codec ID : XVID
Codec ID/Hint : XviD
Duration : 48mn 15s
Bit rate : 1 515 Kbps
Width : 720 pixels
Height : 448 pixels
Display aspect ratio : 1.607
Frame rate : 25.000 fps
Color space : YUV
Chroma subsampling : 4:2:0
Bit depth : 8 bits
Scan type : Progressive
Compression mode : Lossy
Bits/(Pixel*Frame) : 0.188
Stream size : 523 MiB (92%)
Writing library : XviD 64
Audio
ID : 1
Format : MPEG Audio
Format version : Version 1
Format profile : Layer 3
Codec ID : 55
Codec ID/Hint : MP3
Duration : 48mn 15s
Bit rate mode : Constant
Bit rate : 128 Kbps
Channel(s) : 2 channels
Sampling rate : 48.0 KHz
Compression mode : Lossy
Stream size : 44.2 MiB (8%)
Alignment : Aligned on interleaves
Interleave, duration : 40 ms (1.00 video frame)
Interleave, preload duration : 504 ms
Title : Fr
MediaInfo SATRip
Format : AVI
Format/Info : Audio Video Interleave
File size : 683 MiB
Duration : 52mn 5s
Overall bit rate : 1 833 Kbps
Movie name : #91 Возвращение
Writing application : VirtualDubMod 1.5.10.2 (build 2540/release)
Writing library : VirtualDubMod build 2540/release
Video
ID : 0
Format : MPEG-4 Visual
Format profile : Advanced Simple@L5
Format settings, BVOP : 2
Format settings, QPel : No
Format settings, GMC : No warppoints
Format settings, Matrix : Default (MPEG)
Codec ID : XVID
Codec ID/Hint : XviD
Duration : 52mn 5s
Bit rate : 1 695 Kbps
Width : 704 pixels
Height : 432 pixels
Display aspect ratio : 1.630
Frame rate : 25.000 fps
Color space : YUV
Chroma subsampling : 4:2:0
Bit depth : 8 bits
Scan type : Progressive
Compression mode : Lossy
Bits/(Pixel*Frame) : 0.223
Stream size : 632 MiB (92%)
Writing library : XviD 64
Audio
ID : 1
Format : MPEG Audio
Format version : Version 1
Format profile : Layer 3
Codec ID : 55
Codec ID/Hint : MP3
Duration : 52mn 5s
Bit rate mode : Constant
Bit rate : 128 Kbps
Channel(s) : 2 channels
Sampling rate : 48.0 KHz
Compression mode : Lossy
Stream size : 47.7 MiB (7%)
Alignment : Aligned on interleaves
Interleave, duration : 40 ms (1.00 video frame)
Interleave, preload duration : 504 ms
СэмплСкриншоты
47. Серийный убийца (Tueur en s�rie)48. Свидетель (T�moin)62. Потерянный ребёнок (L'enfant perdu)76. Парадизио (Paradisio)77. Фокусник (Le magicien)78. Мишень (La cible)81. Опасная страсть (Passion dangereuse)83. Красная дорожка (Tapis rouge)84. Малышка и 2 умника (La puce et deux cerveaux)85. Всё плохо (�a tourne mal)86. Покерный убийца (Poker tueur)87. Роковые женщины (Femmes fatales)88. Сокровище или жизнь (Le tr�sor ou la vie)89. Смертельная сделка (Deal mortel)90. Совсем другая история (Une autre histoire)91. Возвращение (Retour)92. Опасные пути (Les chemins du hasard)93. Скорая помощь (Urgences)94. Обвинение (Accusation)95. Волны страсти (Vagues de passion)96. Кома (Coma)97. Побочные эффекты (D�rives)98. Судьбоносное отсутствие (Absence fatale)99. Между жизнью и смертью (Entre la vie et la mort)100. Ожидания (Attentes)101. Надежды (Des espoirs)102. Новый старт (Envols)103. Катастрофы (Naufrages)104. Спасение (Sauvetage)105. Повторный старт (Reprise)106. Проблески (�claircies)107. Взрыв (D�tente)108. Революция (R�volution)109. Новая кровь (Sang neuf)110. Мёртвый город (Ville morte)111. Малыш (Un b�b�)112. Ломка (Manques)113. Путешествия (Voyages)114. Тяга к жизни (Le go�t de vivre)115. Разрывы (D�chirements)116. Похищение (Enl�vement)117. Насилие (Violences)118. Неизбежность (Falatit�s)119. Поиски (Recherches)120. Отчаяние (Sans espoir)121. Всегда рядом (Toujours l�)122. Несчастный случай (Accident)123. Как будто... (Comme si...)124. Кузина (Cousine)125. Ограбление (Cambriolage)126. Побег (Fuite)127. Побег (�vasions)128. Преследование (Poursuites)129. Облегчение (D�livrance)130. Неожиданная развязка (Coup de th��tre)131. Возвращение (Retours)132. Перекрёстные шаги (Chass�-crois�)133. Накануне праздника (Veille de f�te)134. Прибытие (Arriv�es)135. Слишком много счастья (Trop de bonheur)136. Обман (Superch�rie)137. Каракас (Caracas)138. Возвращение (La revenante)139. Страсти (Passions)140. Неосмотрительность (D�raison)141. Конспирация (Conspirations)142. До бесконечности (� l'infini)Внимание! Раздача ведётся путём добавления новых серий
Внимание! Раздача ведётся путём добавления новых серий; при каждом добавлении создаётся новый торрент. Чтобы начать докачку новой серии, пользователям необходимо сделать следующее:
(1) остановить скачивание,
(2) удалить старый торрент у себя из клиента (старые серии удалять не надо),
(3) скачать новый торрент и запустить его у себя в клиенте вместо старого, при этом указать клиенту путь в старую папку куда и должно происходить скачивание новых серий.
Ваш клиент при этом должен произвести хеширование (проверку) старой папки (если не производит сам - помогите ему сделать это), и будет докачивать только те серии которых у вас ещё нет. Старые серии при этом не удаляются, а продолжают раздаваться!
Eсли вы уже удалили старые серии, то предотвратить повторную закачку старых серий можно, отжав галочку в соответствующих местах при запуске нового торрента. По возможности, желательно не удалять старые серии как можно дольше чтобы релизёр не столько продолжал раздавать старые серии, а смог сконцентрироваться на новых.
[Профиль] [ЛС]
Показать сообщения:    

Текущее время: Сегодня 16:56

Часовой пояс: GMT



Вы не можете начинать темы
Вы не можете отвечать на сообщения
Вы не можете редактировать свои сообщения
Вы не можете удалять свои сообщения
Вы не можете голосовать в опросах
Вы не можете прикреплять файлы к сообщениям
Вы не можете скачивать файлы