Каникулы Любви / Les vacances de l'amour / Сезон: 3 (5) / Серии: 49-61, 63-75, 79, 80, 82 (160) (Патрик Ле Гуен-Тено) [1997-1998, Мелодрама, Приключения, SATRip] MVO (Нью-медиа) + Original

 
Автор Сообщение

Белочка ®

Пол:

Стаж: 5 лет 1 месяц

Сообщений: 2089



Награды: 1 (Подробнее)

Girls (Количество: 1)
Торрент-статистика

Создавать темы 15-Ноя-2014 23:12

[Цитировать]

Каникулы Любви / Les vacances de l'amour (серии: 49-61, 63-75, 79, 80, 82)
Год выпуска: 1997-1998
Страна: Франция
Жанр: Мелодрама, Приключения
Продолжительность: 29 x ~00:48:00
Перевод: Профессиональный многоголосый закадровый [Нью-медиа]
Русские субтитры: нет
Режиссёр: Патрик Ле Гуен-Тено
В ролях: Patrick Puydebat, Laure Guibert, Tom Schacht, Laly Meignan, Isabelle Bouysse, Philippe Vasseur, Mike Marshall
Описание: "Каникулы Любви" — молодёжный телесериал, являющийся третьей частью тетралогии "Элен и ребята". Выиграв билет в лотерею, пять старых добрых друзей попадают на остров, где им суждено провести каникулы. Ребят больше не интересует музыка, девочкам больше не хочется просиживать дни напролет в кафе и спортзалах. Они повзрослели. Вскоре, красота французской ривьеры и безудержное желание отдохнуть от суеты Парижа заставляет друзей обосноваться там и заняться бизнесом. Но не все так просто. У острова свои правила. Жизнь там полна приключений. Криминальные разборки, безудержная страсть, измены и предательства ждут друзей в чистых водах ЛавАйленда.
Качество: SATRip
Формат: AVI
Видео кодек: XviD
Аудио кодек: MP3
Видео: Xvid MPEG-4, 704x432, 25 fps, 1531 kbps, 0.201 bit/pixel
Аудио: MP3, 48000 Hz, 2 ch, 128 kbps [rus]
Аудио 2: MP3, 48000 Hz, 2 ch, 128 kbps [fr]
Эпизод-гид
#49 Тёмное прошлое
#50 Встречи
#51 Паника
#52 Лиа
#53 Яхта
#54 Поломка
#55 Близкая смерть
#56 Цепочка
#57 Амнезия
#58 Красавица и плэйбой
#59 Сара
#60 Восхитительные каникулы
#61 Выкуп
#63 Двойная игра
#64 Тайны морских глубин
#65 Безумная любовь
#66 Рука в сумке
#67 Самурай
#68 Пираты
#69 Племянник
#70 Раскошеливайся
#71 Душитель
#72 Чемпион
#73 Медовый месяц
#74 Несчастный случай
#75 Крупные неприятности
#79 Золотая клетка
#80 Детская мечта
#82 Жажда мести
MediaInfo
Общее
Формат : AVI
Формат/Информация : Audio Video Interleave
Размер файла : 616 Мбайт
Продолжительность : 47 м.
Общий поток : 1802 Кбит/сек
Название фильма : #38 Плот медузы
Программа кодирования : VirtualDubMod 1.5.10.2 (build 2540/release)
Библиотека кодирования : VirtualDubMod build 2540/release
Видео
Идентификатор : 0
Формат : MPEG-4 Visual
Профиль формата : Advanced Simple@L5
Параметр BVOP формата : 2
Параметр QPel формата : Нет
Параметр GMC формата : Без точки перехода
Параметр матрицы формата : Default (MPEG)
Режим смешивания : Сжатый битовый поток
Идентификатор кодека : XVID
Идентификатор кодека/Подсказка : XviD
Продолжительность : 47 м.
Битрейт : 1531 Кбит/сек
Ширина : 704 пикселя
Высота : 432 пикселя
Соотношение сторон : 1,630
Частота кадров : 25,000 кадров/сек
Цветовое пространство : YUV
Субдискретизация насыщенности : 4:2:0
Битовая глубина : 8 бит
Тип развёртки : Прогрессивная
Метод сжатия : С потерями
Бит/(Пиксели*Кадры) : 0.201
Размер потока : 524 Мбайт (85%)
Библиотека кодирования : XviD 64
Аудио #1
Идентификатор : 1
Формат : MPEG Audio
Версия формата : Version 1
Профиль формата : Layer 3
Идентификатор кодека : 55
Идентификатор кодека/Подсказка : MP3
Продолжительность : 47 м.
Вид битрейта : Постоянный
Битрейт : 128 Кбит/сек
Каналы : 2 канала
Частота : 48,0 КГц
Метод сжатия : С потерями
Размер потока : 43,8 Мбайт (7%)
Выравнивание : Соединение по промежуткам
Продолжительность промежутка : 40 мс. (1,00 видеокадр)
Время предзагрузки промежутка : 504 мс.
Заголовок : Rus
Аудио #2
Идентификатор : 2
Формат : MPEG Audio
Версия формата : Version 1
Профиль формата : Layer 3
Идентификатор кодека : 55
Идентификатор кодека/Подсказка : MP3
Продолжительность : 47 м.
Вид битрейта : Постоянный
Битрейт : 128 Кбит/сек
Каналы : 2 канала
Частота : 48,0 КГц
Метод сжатия : С потерями
Размер потока : 43,8 Мбайт (7%)
Выравнивание : Соединение по промежуткам
Продолжительность промежутка : 40 мс. (1,00 видеокадр)
Время предзагрузки промежутка : 504 мс.
Заголовок : Fr
СэмплСкриншоты
49. Тёмное прошлое50. Встречи51. Паника52. Лиа53. Яхта54. Поломка55. Близкая смерть56. Цепочка57. Амнезия58. Красавица и плэйбой59. Сара60. Восхитительные каникулы61. Выкуп63. Двойная игра64. Тайны морских глубин65. Безумная любовь66. Рука в сумке67. Самурай68. Пираты69. Племянник70. Раскошеливайся71. Душитель72. Чемпион73. Медовый месяц74. Несчастный случай75. Крупные неприятности79. Золотая клетка80. Детская мечта82. Жажда мести
[Профиль] [ЛС]
Показать сообщения:    

Текущее время: Сегодня 22:41

Часовой пояс: GMT



Вы не можете начинать темы
Вы не можете отвечать на сообщения
Вы не можете редактировать свои сообщения
Вы не можете удалять свои сообщения
Вы не можете голосовать в опросах
Вы не можете прикреплять файлы к сообщениям
Вы не можете скачивать файлы