Каникулы Любви / Les vacances de l'amour / Сезоны: 1-3 (5) / Серии: 1-46 (160) (Патрик Ле Гуен-Тено) [1996-1998, Мелодрама, Приключения, DVDRip] MVO (Нью-медиа) + Original

 
Автор Сообщение

Белочка ®

Пол:

Стаж: 5 лет 1 месяц

Сообщений: 2089



Награды: 1 (Подробнее)

Girls (Количество: 1)
Торрент-статистика

Создавать темы 15-Ноя-2014 22:42

[Цитировать]

Каникулы Любви / Les vacances de l'amour (серии: 1-46)
Год выпуска: 1996-1998
Страна: Франция
Жанр: Мелодрама
Продолжительность: 46 x ~00:48:00
Перевод: Профессиональный многоголосый закадровый [Нью-медиа]
Русские субтитры: нет
Режиссёр: Патрик Ле Гуен-Тено
В ролях: Patrick Puydebat, Laure Guibert, Tom Schacht, Isabelle Bouysse, Philippe Vasseur, Laly Meignan, Olivier Casadesus, Karine Lollichon, Annette Schreiber, Lynda Lacoste, Manuela Lopez, Mike Marshall
Описание: Сериал является продолжением истории Элен и её друзей. Выиграв билет в лотерею Жозе, Бенедикт, Джимми, Синтия, Оливье, Натали, Линда, Лали и Мануэла отправляются на каникулы на остров Love Island. Там они встречают своего друга Николя, который приехал на остров после разлуки с Элен. В жизни ребят теперь все по-другому. Их больше не интересует музыка, они наслаждаются жизнью, держат свой бизнес, наконец, просто строят свое семейное счастье
Качество: DVDRip
Формат: AVI
Видео кодек: XviD
Аудио кодек: MP3
Видео: Xvid MPEG-4, 720x448, 25 fps, 1471 kbps, 0.182 bit/pixel
Аудио: MP3, 48000 Hz, 2 ch, 128 kbps [rus]
Аудио 2: MP3, 48000 Hz, 2 ch, 128 kbps [fr]
Эпизод-гид
#1 Сюрпризы
#2 Тайна
#3 Загадочное будущее
#4 Неопределенность
#5 Вопрос совести
#6 Печальные расставания
#7 Обманщик
#8 Долг
#9 Надежда умирает последней
#10 Месть
#11 Ребёнок
#12 Звезда (часть первая)
#13 Звезда (часть вторая)
#14 Грязное дело (часть первая)
#15 Грязное дело (часть вторая)
#16 Возвращение
#17 Срочный вылет
#18 Властелин сердец
#19 Дело Дона Бардоне (часть первая)
#20 Дело Дона Бардоне (часть вторая)
#21 Зов моря (часть первая)
#22 Зов моря (часть вторая)
#23 Ришар
#24 Гостья (часть первая)
#25 Гостья (часть вторая)
#26 Ссора (часть первая)
#27 Ссора (часть вторая)
#28 Болезнь любви (часть первая)
#29 Болезнь любви (часть вторая)
#30 Чудесная рыбалка
#31 Орешек
#32 Падший ангел
#33 Тайна Жанны (часть первая)
#34 Тайна Жанны (часть вторая)
#35 Дуэль
#36 Тайна Жанны (часть третья)
#37 Взрывоопасный уикенд
#38 Плот Медузы
#39 Деньги
#40 Папарацци
#41 Пропащий отец
#42 Концерт
#43 Любовь слепа
#44 Похищение
#45 Помешательство
#46 Облава
MediaInfo
Общее
Формат : AVI
Формат/Информация : Audio Video Interleave
Размер файла : 614 Мбайт
Продолжительность : 49 м.
Общий поток : 1741 Кбит/сек
Программа кодирования : VirtualDubMod 1.5.10.2 (build 2540/release)
Библиотека кодирования : VirtualDubMod build 2540/release
Видео
Идентификатор : 0
Формат : MPEG-4 Visual
Профиль формата : Advanced Simple@L5
Параметр BVOP формата : 1
Параметр QPel формата : Нет
Параметр GMC формата : Без точки перехода
Параметр матрицы формата : Выборочная
Идентификатор кодека : XVID
Идентификатор кодека/Подсказка : XviD
Продолжительность : 49 м.
Битрейт : 1471 Кбит/сек
Ширина : 720 пикселей
Высота : 448 пикселей
Соотношение сторон : 1,607
Частота кадров : 25,000 кадров/сек
Цветовое пространство : YUV
Субдискретизация насыщенности : 4:2:0
Битовая глубина : 8 бит
Тип развёртки : Прогрессивная
Метод сжатия : С потерями
Бит/(Пиксели*Кадры) : 0.182
Размер потока : 518 Мбайт (84%)
Библиотека кодирования : XviD 63
Аудио #1
Идентификатор : 1
Формат : MPEG Audio
Версия формата : Version 1
Профиль формата : Layer 3
Режим : Joint stereo
Расширение режима : MS Stereo
Идентификатор кодека : 55
Идентификатор кодека/Подсказка : MP3
Продолжительность : 49 м.
Вид битрейта : Постоянный
Битрейт : 128 Кбит/сек
Каналы : 2 канала
Частота : 48,0 КГц
Метод сжатия : С потерями
Размер потока : 45,1 Мбайт (7%)
Выравнивание : Соединение по промежуткам
Продолжительность промежутка : 40 мс. (1,00 видеокадр)
Время предзагрузки промежутка : 504 мс.
Аудио #2
Идентификатор : 2
Формат : MPEG Audio
Версия формата : Version 1
Профиль формата : Layer 3
Режим : Joint stereo
Расширение режима : MS Stereo
Идентификатор кодека : 55
Идентификатор кодека/Подсказка : MP3
Продолжительность : 49 м.
Вид битрейта : Постоянный
Битрейт : 128 Кбит/сек
Каналы : 2 канала
Частота : 48,0 КГц
Метод сжатия : С потерями
Размер потока : 45,1 Мбайт (7%)
Выравнивание : Соединение по промежуткам
Продолжительность промежутка : 40 мс. (1,00 видеокадр)
Время предзагрузки промежутка : 504 мс.
СэмплСкриншоты

Дополнительно

1. Сюрпризы2. Тайна3. Загадочное будущее4. Неопределённость5. Вопрос совести6. Печальные расставания7. Обманщик8. Долг9. Надежда умирает последней10. Месть11. Ребёнок12. Звезда (часть первая)13. Звезда (часть вторая)14. Грязное дело (часть первая)15. Грязное дело (часть вторая)16. Возвращение17. Срочный вылет18. Властелин сердец19. Дело Дона Бардоне (часть первая)20. Дело Дона Бардоне (часть вторая)21. Зов моря (часть первая)22. Зов моря (часть вторая)23. Ришар24. Гостья (часть первая)25. Гостья (часть вторая)26. Ссора (часть первая)27. Ссора (часть вторая)28. Болезнь любви (часть первая)29. Болезнь любви (часть вторая)30. Чудесная рыбалка31. Орешек32. Падший ангел33. Тайна Жанны (часть первая)34. Тайна Жанны (часть вторая)35. Дуэль36. Тайна Жанны (часть третья)37. Взрывоопасный уикенд38. Плот Медузы39. Деньги40. Папарацци41. Пропащий отец42. Концерт43. Любовь слепа44. Похищение45. Помешательство46. Облава
[Профиль] [ЛС]
Показать сообщения:    

Текущее время: Сегодня 08:19

Часовой пояс: GMT



Вы не можете начинать темы
Вы не можете отвечать на сообщения
Вы не можете редактировать свои сообщения
Вы не можете удалять свои сообщения
Вы не можете голосовать в опросах
Вы не можете прикреплять файлы к сообщениям
Вы не можете скачивать файлы