Канал / The Channel (Том Льюис / Tom Lewis) [2016, США, Ужасы, триллер, драма, WEB-DLRip] DVO (Parovoz Production)

 
Автор Сообщение

TorrentFilm ®

Пол:

Стаж: 2 года

Сообщений: 7741



Награды: Нет

Торрент-статистика

Создавать темы 23-Мар-2016 00:08

[Цитировать]

-Канал / The Channel -Страна: США
Жанр: Ужасы, триллер, драма
Год выпуска: 2016
Продолжительность: 01:35:05
Перевод
: Любительский (двухголосый закадровый) Parovoz Production
Cубтитры: нет
Режиссер: Том Льюис / Tom Lewis-В ролях: Ник Кларк, Эндрю Олсон, Кэрол Энн Уоттс, Коррин Эванс, Майрон Нэтвик, Ларрс Джексон, Донна Руш, Кимберли Спак-Описание: Пережив предсмертный опыт , подросток обнаруживает, что она стала каналом для входа злого духа в ее жизни .- -Качество видео: WEB-DLRip
Формат видео: AVI
Видео: XviD, 720x400 (16:9), 23.976 fps, 0.270 bit/pixel
Аудио: 48 kHz, AC3 Dolby Digital, 2/0 (L,R) ch, ~192 kbps-

MediaInfo

General
Complete name : D:\Фильмы\Kanal.2016.L2.WEB-DLRip.avi
Format : AVI
Format/Info : Audio Video Interleave
File size : 1.37 GiB
Duration : 1h 34mn
Overall bit rate : 2 068 Kbps
Writing application : VirtualDubMod 1.5.10.3 | www.virtualdub-fr.org || (build 2550/release)
Writing library : VirtualDubMod build 2550/release
Video
ID : 0
Format : MPEG-4 Visual
Format profile : Advanced Simple@L5
Format settings, BVOP : 2
Format settings, QPel : No
Format settings, GMC : No warppoints
Format settings, Matrix : Default (H.263)
Muxing mode : Packed bitstream
Codec ID : XVID
Codec ID/Hint : XviD
Duration : 1h 34mn
Bit rate : 1 866 Kbps
Width : 720 pixels
Height : 400 pixels
Display aspect ratio : 16:9
Frame rate : 23.976 (23976/1000) fps
Color space : YUV
Chroma subsampling : 4:2:0
Bit depth : 8 bits
Scan type : Progressive
Compression mode : Lossy
Bits/(Pixel*Frame) : 0.270
Stream size : 1.23 GiB (90%)
Writing library : XviD 66
Audio
ID : 1
Format : AC-3
Format/Info : Audio Coding 3
Mode extension : CM (complete main)
Format settings, Endianness : Big
Codec ID : 2000
Duration : 1h 34mn
Bit rate mode : Constant
Bit rate : 192 Kbps
Channel(s) : 2 channels
Channel positions : Front: L R
Sampling rate : 48.0 KHz
Frame rate : 31.250 fps (1536 spf)
Compression mode : Lossy
Stream size : 130 MiB (9%)
Alignment : Split accross interleaves
Interleave, duration : 42 ms (1.00 video frame)
Interleave, preload duratio : 500 ms

-

Скриншот c названием фильма

Скриншоты

-
[Профиль] [ЛС]
Кто просматривает тему:

Форум Тема Автор Размер
Russian music (other genres) (Шансон) Группа Беломорканал и С.Арутюнян - (34 CD) 1997 - 2011, MP3 (tracks), 320 kbps Russian Mafia 4.73 GB
XXXI Летние Олимпийские игры. Рио-де-Жанейро 2016 (Бразилия) XXXI Летние Олимпийские Игры. Рио-де-Жанейро (Бразилия). Гандбол. Женщины. Группа А. 2-й тур. Россия - Франция [1 Канал](2016) HDTV 1080i Russian Mafia 4.79 GB
Фантастика, фэнтези Аноним (Роман Канушкин) - Канал имени Москвы (Новые легенды, 1) [Городское фэнтези, 2015, FB2] Garik014 2 MB
Фильмы 2010 года Безумное свидание / Date Night (Шон Леви / Shawn Levy) [2010, США, комедия, мелодрама, криминал, HDTVRip] [Open Matte] MVO (1 канал) TorrentFilm 1.37 GB
Документальные HD Бобби Фишер Против Всего Мира / Bobby Fischer Against the World (Лиз Гарбус / Liz Garbus) [2011, Документальный, HDTV 720p] MVO (Первый Канал) TorrentFilm 2.72 GB
Флора и фауна Борьба за выживание /Survival (80 фильмов) [5 канал 26.05-14.10.09] () [1988-2001 г., Документальный сериал, мир природы, путешествия, SATRip] reversefile 70.18 GB
Документальные HD Брижит Бардо / Bardot, la méprise (Давид Тебуль / David Teboul) [2013, Документальный, HDTV 720p] MVO (Первый Канал) TorrentFilm 1.59 GB
Зарубежные сериалы Вегас / Vegas [01x01-19] (2012) WEB-DLRip | Первый канал Белочка 11.83 GB
Показать сообщения:    

Текущее время: Сегодня 09:12

Часовой пояс: GMT



Вы не можете начинать темы
Вы не можете отвечать на сообщения
Вы не можете редактировать свои сообщения
Вы не можете удалять свои сообщения
Вы не можете голосовать в опросах
Вы не можете прикреплять файлы к сообщениям
Вы не можете скачивать файлы