«Канадиенс» навсегда! / Pour toujours, les Canadiens! (Силвэйн Арчамбо / Sylvain Archambault) [2009, Канада, драма, история, спорт, DVDRip] (Cinema Kinofilmoviech) + Sub Rus + Original Fre

 
Автор Сообщение

TorrentFilm ®

Пол:

Стаж: 2 года

Сообщений: 7741



Награды: Нет

Торрент-статистика

Создавать темы 26-Дек-2015 00:05

[Цитировать]

«Канадиенс» навсегда! / Pour toujours, les Canadiens!
Страна: Канада
Жанр: драма, история, спорт
Год выпуска: 2009
Продолжительность: 01:34:44
Перевод: Субтитры (Cinema Kinofilmoviech)
Cубтитры: русские
Оригинальная аудиодорожка: французский
Режиссер: Силвэйн Арчамбо / Sylvain Archambault
В ролях: Пьер-Поль Ален, Dhanaé Audet-Beaulieu, Дэнис Бернард, Селин Бонье, Риал Боссе, Diane Longlois, Стефани Ф. Жак, Антуан Л’Экюйер, Жан Лапойнт, Клод Леголт, Хьюго Сент-Онж-Пакуин
Описание: Чёрная полоса в жизни 17-летнего Уильяма не кажется ему сейчас столь же незначительной, как линия от чиркнувшей по борту шайбы. Её начало он видит в нежелательном переезде в другой город, а продолжение — в разногласиях и конфликтах с отцом, который с головой ушёл в работу по созданию фильма, с тренером, обвиняющим его в отсутствии командного духа, и капитаном команды, чья зависть кормится «снайперскими» успехами новоприбывшего игрока. Мать Уильяма уверена, что дела сына наладятся, так же как уверена в том, что её маленький пациент пойдёт на поправку. 10-летний Даниэль нуждается в пересадке почки. Его здоровье и психологическое состояние с каждым днём ухудшаются. Его воля к жизни подпитывается лишь болельщицкой страстью, верностью клубу «Монреаль Канадиенс» и главному своему кумиру — финскому центральному нападающему Саку Койву.
Доп. информация: Сами себя в фильме исполняют Жан Беливо и хоккеисты «Монреаль Канадиенс» сезона 2008-2009.
Качество видео: DVDRip
Формат видео: AVI
Видео: XviD, 720x392, 16:9, 24 fps, 1 632 Kbps
Аудио: AC-3, 48.0 KHz, 16 bits, 2 channels, 192 kbps
Формат субтитров: softsub (SRT)

MediaInfo

Format : AVI
Format/Info : Audio Video Interleave
File size : 1.21 GiB
Duration : 1h 34mn
Overall bit rate : 1 833 Kbps
Writing application : VirtualDubMod 1.5.10.3 | www.virtualdub-fr.org || (build 2550/release)
Writing library : VirtualDubMod build 2550/release
Video
ID : 0
Format : MPEG-4 Visual
Format profile : Advanced Simple@L5
Format settings, BVOP : 2
Format settings, QPel : No
Format settings, GMC : No warppoints
Format settings, Matrix : Custom
Codec ID : XVID
Codec ID/Hint : XviD
Duration : 1h 34mn
Bit rate : 1 632 Kbps
Width : 720 pixels
Height : 392 pixels
Display aspect ratio : 16:9
Frame rate : 23.976 fps
Color space : YUV
Chroma subsampling : 4:2:0
Bit depth : 8 bits
Scan type : Progressive
Compression mode : Lossy
Bits/(Pixel*Frame) : 0.241
Stream size : 1.08 GiB (89%)
Writing library : XviD 1.2.1 (UTC 2008-12-04)
Audio
ID : 1
Format : AC-3
Format/Info : Audio Coding 3
Mode extension : CM (complete main)
Codec ID : 2000
Duration : 1h 34mn
Bit rate mode : Constant
Bit rate : 192 Kbps
Channel(s) : 2 channels
Channel positions : Front: L R
Sampling rate : 48.0 KHz
Bit depth : 16 bits
Compression mode : Lossy
Stream size : 130 MiB (10%)
Alignment : Split accross interleaves
Interleave, duration : 42 ms (1.00 video frame)
Interleave, preload duration : 500 ms

Отрывок субтитров

2
00:02:26,246 --> 00:02:29,246
Я всегда задавался вопросом, почему
«Канадиенс» пробуждают такую страсть,
3
00:02:30,683 --> 00:02:32,718
почему Хоуи Моренц, Морис Ришар,
4
00:02:32,719 --> 00:02:35,420
Жан Беливо и Ги Ляфлёр так обожаемы,
5
00:02:35,421 --> 00:02:38,421
возведены в ранг героев
в их городе и стране.
6
00:02:38,892 --> 00:02:41,527
Объяснений на этот вопрос
столько же много,
7
00:02:41,528 --> 00:02:43,428
сколько существует болельщиков.

Скриншот c названием фильма

Скриншоты

[Профиль] [ЛС]

Создавать темы 12-Июн-2016 07:56 (спустя 5 месяцев 17 дней)

Топик был перенесен из форума Фильмы 2011 года в форум Фильмы 2009 года
Russian Mafia
 
Показать сообщения:    

Текущее время: Сегодня 10:34

Часовой пояс: GMT



Вы не можете начинать темы
Вы не можете отвечать на сообщения
Вы не можете редактировать свои сообщения
Вы не можете удалять свои сообщения
Вы не можете голосовать в опросах
Вы не можете прикреплять файлы к сообщениям
Вы не можете скачивать файлы