Каминг Аут (2017) WEBRip 1080p

 
Автор Сообщение

BOSS ®

Пол:

Стаж: 3 года 1 месяц

Сообщений: 8254

Откуда: ODESSA



Награды: 22 (Подробнее)

Top Seeder 5 (Количество: 1) Top Keeper 2 (Количество: 1) Mega Releaser 1 (Количество: 1)
Торрент-статистика

Создавать темы 04-Сен-2017 04:24

[Цитировать]

Информация о фильме
Название: Каминг Аут
Год выхода: 2017
Жанр: короткометражка, сатира
Режиссер: Герман Полозов
В ролях: Дамир Миркамилов, Вячеслав Гардер, Евгений Чистяков
О фильме:
Спустя пару недель после оформления ипотеки Андрей узнает, что может потерять свою работу начальника отдела маркетинга из-за нового одиозного законопроекта, который получил поддержку в госдуме.
Страна: Россия
Студия: AG Films
Продолжительность: 00:14:59
Файл
Кодек: h.264
Качество: WEBRip 1080p
Видео: 1920×804, ~ 2293 kbps, 24.000 fps
Звук: AAC | 48.0 KHz | 2 ch | 126 kbps

Скриншоты

MediaInfo

Complete name : D:ComingOutWEBRip1080p.mp4
Format : MPEG-4
Format profile : Base Media
Codec ID : isom
File size : 260 MiB
Duration : 14mn 59s
Overall bit rate : 2 424 Kbps
Writing application : Lavf56.25.101
Video #1
ID : 1
Format : AVC
Format/Info : Advanced Video Codec
Format profile : High@L4.0
Format settings, CABAC : Yes
Format settings, ReFrames : 2 frames
Codec ID : avc1
Codec ID/Info : Advanced Video Coding
Duration : 14mn 59s
Bit rate : 2 293 Kbps
Width : 1 920 pixels
Height : 804 pixels
Display aspect ratio : 2.40:1
Frame rate mode : Constant
Frame rate : 24.000 fps
Color space : YUV
Chroma subsampling : 4:2:0
Bit depth : 8 bits
Scan type : Progressive
Bits/(Pixel*Frame) : 0.062
Stream size : 246 MiB (95%)
Color primaries : BT.709
Transfer characteristics : BT.709
Matrix coefficients : BT.709
Audio #2
ID : 2
Format : AAC
Format/Info : Advanced Audio Codec
Format profile : LC
Codec ID : 40
Duration : 14mn 59s
Bit rate mode : Constant
Bit rate : 126 Kbps
Channel(s) : 2 channels
Channel positions : Front: L R
Sampling rate : 44.1 KHz
Compression mode : Lossy
Delay relative to video : 42ms
Stream size : 13.5 MiB (5%)
[Профиль] [ЛС]
Показать сообщения:    

Текущее время: Сегодня 05:42

Часовой пояс: GMT



Вы не можете начинать темы
Вы не можете отвечать на сообщения
Вы не можете редактировать свои сообщения
Вы не можете удалять свои сообщения
Вы не можете голосовать в опросах
Вы не можете прикреплять файлы к сообщениям
Вы не можете скачивать файлы