Камень (Вячеслав Каминский) [2012, Россия, триллер, BDRip 1080p] Original Rus

 
Автор Сообщение

painkiller ®

Стаж: 2 года 3 месяца

Сообщений: 582



Награды: Нет

Торрент-статистика

Создавать темы 15-Авг-2014 10:20

[Цитировать]

Камень
«Когда остаешься один, твое сердце превращается в...»
Страна: Россия
Жанр: триллер
Год выпуска: 2012
Продолжительность: 01:24:49
Перевод: Не требуется
Cубтитры: нет
Оригинальная аудиодорожка: русский
Режиссер: Вячеслав Каминский
В ролях: Сергей Светлаков, Николай Козак, Олеся Судзиловская, Александр Колесников, Валда Бичкуте, Елена Коренева, Сергей Насибов, Вячеслав Хархота, Семен Оконочников, Роман Володькин
Описание: Когда у известного бизнесмена похищают 7-летнего сына, он еще не представляет, какое испытание его ждет! Оказывается, таинственному похитителю не нужен никакой выкуп и у него единственное требование к отцу. В течение следующих суток тот должен решить, кто умрет из них двоих: его ребенок или он сам...


Тип релиза: BDRip 1080p
Контейнер: MKV
Видео: 9200 kbps, 1920*816 (2.35:1), 25.000 fps, AVC
Аудио: Rus, 448 kbps, 48.0 KHz, 16 bits, 6 ch, ac3
Доп. информация: Сохранены оригинальные чаптеры как на Blu-ray.
Релиз от:

MediaInfo

General
Unique ID : 182385567565253774476626414608457908398 (0x89362EBEDC423BC4885C1190B5EFC0AE)
Complete name : D:\ноут\Kamen.2011.1080p.BluRay.Rus..mkv
Format : Matroska
File size : 5.84 GiB
Duration : 1h 24mn
Overall bit rate : 9 854 Kbps
Movie name : Andrei
Encoded date : UTC 2012-02-19 09:33:00
Writing application : mkvmerge v4.6.0 ('Still Crazy After All These Years') сборка от Mar 10 2011 02:50:32
Writing library : libebml v1.2.0 + libmatroska v1.1.0
Cover : Yes / Yes / Yes / Yes / Yes / Yes / Yes / Yes / Yes / Yes / Yes / Yes
Video
ID : 1
Format : AVC
Format/Info : Advanced Video Codec
Format profile : High@L4.1
Format settings, CABAC : Yes
Format settings, ReFrames : 5 frames
Codec ID : V_MPEG4/ISO/AVC
Duration : 1h 24mn
Bit rate : 9 200 Kbps
Width : 1 920 pixels
Height : 816 pixels
Display aspect ratio : 2.35:1
Frame rate : 25.000 fps
Color space : YUV
Chroma subsampling : 4:2:0
Bit depth : 8 bits
Scan type : Progressive
Bits/(Pixel*Frame) : 0.235
Stream size : 5.34 GiB (92%)
Title : Kamen.2011.BDRip.1080p.x264
Writing library : x264 core 120 r2164 da19765
Encoding settings : cabac=1 / ref=5 / deblock=1:-3:-3 / analyse=0x3:0x113 / me=umh / subme=11 / psy=1 / psy_rd=1.00:0.15 / mixed_ref=1 / me_range=34 / chroma_me=1 / trellis=2 / 8x8dct=1 / cqm=0 / deadzone=21,11 / fast_pskip=1 / chroma_qp_offset=-3 / threads=6 / sliced_threads=0 / nr=0 / decimate=1 / interlaced=0 / bluray_compat=0 / constrained_intra=0 / bframes=8 / b_pyramid=2 / b_adapt=2 / b_bias=0 / direct=3 / weightb=1 / open_gop=0 / weightp=2 / keyint=250 / keyint_min=25 / scenecut=40 / intra_refresh=0 / rc_lookahead=50 / rc=2pass / mbtree=1 / bitrate=9200 / ratetol=1.0 / qcomp=0.60 / qpmin=0 / qpmax=69 / qpstep=4 / cplxblur=20.0 / qblur=0.5 / ip_ratio=1.40 / aq=1:1.00
Language : Russian
Audio
ID : 2
Format : AC-3
Format/Info : Audio Coding 3
Mode extension : CM (complete main)
Codec ID : A_AC3
Duration : 1h 24mn
Bit rate mode : Constant
Bit rate : 640 Kbps
Channel(s) : 6 channels
Channel positions : Front: L C R, Side: L R, LFE
Sampling rate : 48.0 KHz
Bit depth : 16 bits
Compression mode : Lossy
Stream size : 388 MiB (6%)
Title : Dolby Digital / 5.1 / 640 kbps
Language : Russian
Menu
00:00:00.000 : ru:Глава 1
00:00:39.000 : ru:Глава 2
00:11:18.880 : ru:Глава 3
00:22:26.840 : ru:Глава 4
00:32:14.960 : ru:Глава 5
00:42:02.600 : ru:Глава 6
00:52:13.080 : ru:Глава 7
01:02:49.560 : ru:Глава 8
01:12:03.440 : ru:Глава 9

Source vs Encode

Source vs Encode

[Профиль] [ЛС]
Показать сообщения:    

Текущее время: Сегодня 10:48

Часовой пояс: GMT



Вы не можете начинать темы
Вы не можете отвечать на сообщения
Вы не можете редактировать свои сообщения
Вы не можете удалять свои сообщения
Вы не можете голосовать в опросах
Вы не можете прикреплять файлы к сообщениям
Вы не можете скачивать файлы