Камень (Вячеслав Каминский) [2012, Россия, триллер, BDRip 720p] Original Rus

 
Автор Сообщение

painkiller ®

Стаж: 2 года 3 месяца

Сообщений: 582



Награды: Нет

Торрент-статистика

Создавать темы 14-Авг-2014 09:20

[Цитировать]

Камень
«Когда остаешься один, твое сердце превращается в...»
Страна: Россия
Жанр: триллер
Год выпуска: 2012
Продолжительность: 01:24:49
Перевод: Не требуется
Cубтитры: нет
Оригинальная аудиодорожка: русский
Режиссер: Вячеслав Каминский
В ролях: Сергей Светлаков, Николай Козак, Олеся Судзиловская, Александр Колесников, Валда Бичкуте, Елена Коренева, Сергей Насибов, Вячеслав Хархота, Семен Оконочников, Роман Володькин
Описание: Когда у известного бизнесмена похищают 7-летнего сына, он еще не представляет, какое испытание его ждет! Оказывается, таинственному похитителю не нужен никакой выкуп и у него единственное требование к отцу. В течение следующих суток тот должен решить, кто умрет из них двоих: его ребенок или он сам...


Тип релиза: BDRip 720p
Контейнер: MKV
Видео: 4936 kbps, 1280*544 (2.35:1), 25.000 fps, AVC
Аудио: Rus, 448 kbps, 48.0 KHz, 16 bits, 6 ch, ac3

MediaInfo

General
Unique ID : 218849438734968408462872076824953165626 (0xA4A4DE658FAD785CA28AE890D5A7173A)
Complete name : D:\ноут\Kamen.2011.BDRip.720p.mkv
Format : Matroska
File size : 3.37 GiB
Duration : 1h 24mn
Overall bit rate : 5 689 Kbps
Movie name : Kamen.BDRip.720p.
Encoded date : UTC 2012-02-18 05:26:29
Writing application : mkvmerge v5.2.1 ('A Far Off Place') built on Jan 2 2012 23:21:10
Writing library : libebml v1.2.3 + libmatroska v1.3.0
Video
ID : 1
Format : AVC
Format/Info : Advanced Video Codec
Format profile : High@L4.1
Format settings, CABAC : Yes
Format settings, ReFrames : 12 frames
Codec ID : V_MPEG4/ISO/AVC
Duration : 1h 24mn
Bit rate : 4 936 Kbps
Width : 1 280 pixels
Height : 544 pixels
Display aspect ratio : 2.35:1
Frame rate : 25.000 fps
Color space : YUV
Chroma subsampling : 4:2:0
Bit depth : 8 bits
Scan type : Progressive
Bits/(Pixel*Frame) : 0.284
Stream size : 2.92 GiB (87%)
Title : Kamen.BDRip.720p.
Writing library : x264 core 119 r2106 07efeb4
Encoding settings : cabac=1 / ref=12 / deblock=1:-3:-3 / analyse=0x3:0x113 / me=umh / subme=9 / psy=1 / psy_rd=1.10:0.05 / mixed_ref=1 / me_range=32 / chroma_me=1 / trellis=2 / 8x8dct=1 / cqm=0 / deadzone=21,11 / fast_pskip=1 / chroma_qp_offset=-3 / threads=6 / sliced_threads=0 / nr=0 / decimate=1 / interlaced=0 / bluray_compat=0 / constrained_intra=0 / bframes=8 / b_pyramid=2 / b_adapt=2 / b_bias=0 / direct=1 / weightb=1 / open_gop=0 / weightp=2 / keyint=250 / keyint_min=23 / scenecut=40 / intra_refresh=0 / rc_lookahead=40 / rc=crf / mbtree=1 / crf=17.0 / qcomp=0.60 / qpmin=0 / qpmax=69 / qpstep=4 / vbv_maxrate=50000 / vbv_bufsize=62500 / crf_max=0.0 / nal_hrd=none / ip_ratio=1.40 / aq=1:1.00
Language : Russian
Audio
ID : 2
Format : AC-3
Format/Info : Audio Coding 3
Mode extension : CM (complete main)
Codec ID : A_AC3
Duration : 1h 24mn
Bit rate mode : Constant
Bit rate : 640 Kbps
Channel(s) : 6 channels
Channel positions : Front: L C R, Side: L R, LFE
Sampling rate : 48.0 KHz
Bit depth : 16 bits
Compression mode : Lossy
Stream size : 388 MiB (11%)
Language : Russian
Menu
00:00:00.000 : ru:00:00:00.000
00:00:39.000 : ru:00:00:39.000
00:11:18.880 : ru:00:11:18.880
00:22:26.840 : ru:00:22:26.840
00:32:14.960 : ru:00:32:14.960
00:42:02.600 : ru:00:42:02.600
00:52:13.080 : ru:00:52:13.080
01:02:49.560 : ru:01:02:49.560
01:12:03.440 : ru:01:12:03.440
[Профиль] [ЛС]
Показать сообщения:    

Текущее время: Сегодня 00:14

Часовой пояс: GMT



Вы не можете начинать темы
Вы не можете отвечать на сообщения
Вы не можете редактировать свои сообщения
Вы не можете удалять свои сообщения
Вы не можете голосовать в опросах
Вы не можете прикреплять файлы к сообщениям
Вы не можете скачивать файлы