Каменская [S01-06] (Юрий Мороз) [1999-2011, криминал, детектив] DVDRip

 
Автор Сообщение

BOSS ®

Пол:

Стаж: 2 года 1 месяц

Сообщений: 3718

Откуда: ODESSA



Награды: 20 (Подробнее)

Mega Releaser 2 (Количество: 1) Mega Releaser 3 (Количество: 1) Top Seeder 5 (Количество: 1)
Торрент-статистика

Создавать темы 11-Апр-2015 07:12

[Цитировать]

Каменская / Сезоны: 1 - 6 из 6 / Фильмы: 31 из 31 / Серии: 84 из 84«Гениальный сыщик в юбке»Страна: Россия / НТВ-Кино, Рекун-тв, Racoon-Kino
Жанр: криминал, детектив
Перевод: Не требуется
Cубтитры: нет
Оригинальная аудиодорожка: русский- Каменская / Фильмы: 8 из 8 / Серии: 16 из 16Студия: НТВ-Кино
Год выпуска: 1999 - 2000
Продолжительность: 16 х ~ 00:52:00
Дополнительно: В первом сезоне 8 фильмов, каждый из которых содержит по 2 серии.
Режиссер: Юрий Мороз
В ролях: Елена Яковлева, Сергей Никоненко, Сергей Гармаш, Дмитрий Нагиев, Андрей Ильин, Борис Невзоров, Андрей Панин, Всеволод Шиловский, Алексей Горбунов, Марина Могилевская...
Роли дублировал: Артем Карапетян
Описание: Аналитик МУРа, майор милиции Анастасия Каменская подключается к расследованию загадочного происшествия, в результате которого погибла молодая женщина — сотрудник МВД. Внешне все выглядит как трагический и нелепый несчастный случай. Однако привычка не верить в случайности заставляет Каменскую обратить более пристальное внимание на людей, окружавших погибшую. Разбираясь в малозначащих на первый взгляд обстоятельствах дела, майор Каменская не подозревает, что включается в смертельно опасную игру, ставкой в которой станет ее собственная жизнь…

Качество: DVDRip / 8 Х DVD5 R5 - лицензионные диски от компании "TWISTER"
Формат: AVI
Видео: 688x416 (1.654:1), 25.000 fps, XviD ~ 1340 kbps avg, 0.186 bit/pixel
Аудио: 48 kHz, Dolby AC3, 2 ch, 192 kbps, русский

Фильмы

Фильм 1: Стечение обстоятельств / (1999)
Аналитик МУРа, майор милиции Анастасия Каменская подключается к расследованию загадочного происшествия, в результате которого погибла молодая женщина - сотрудник МВД. Внешне все выглядит как трагический и нелепый несчастный случай. Однако привычка не верить в случайности заставляет Каменскую обратить более пристальное внимание на людей, окружавших погибшую. Разбираясь в малозначащих на первый взгляд обстоятельствах дела, майор Каменская не подозревает, что включается в смертельно опасную игру, ставкой в которой станет ее собственная жизнь...
Фильм 2: Игра на чужом поле / (2000)
Получив отпуск, Каменская уезжает в санаторий "Долина", где попадает в самую гущу криминальных событий. В курортном городке снимают на заказ нелегальные фильмы с порнухой и убийствами для людей с нездоровыми вкусами. Имеют место и самые реальные убийства. Местный босс Эдуард Петрович, которому ни к чему излишнее внимание к своему району, дает добро своим помощникам на привлечение опыта Каменской, поселившейся под видом обычной переводчицы...
Фильм 3: Убийца поневоле / (2000)
Предпринятое майором Анастасией Каменской частное расследование еще больше осложняет дело об убийстве милиционера. А за девушкой брата Анастасии, оказывается, следят какие-то жуткие люди, что тоже имеет отношение к этому непростому делу. А еще есть человек, который методично убивает... убийц. А убийцы пытаются убить его. И если бы не профессиональная хватка и женское чутье Каменской, никто бы так и понял, кто кого хочет убить и зачем ему это надо.
Фильм 4: Смерть ради смерти / (2000)
Незначительное на первый взгляд дело о разглашении тайны усыновления становится новым испытанием для майора Каменской. Какое отношение к шантажу обезумевшей от горя матери имеет загадочный прибор, разработанный секретным московским НИИ? Чем грозит людям "эффект обратной петли"? Кто заинтересован в проведении экспериментов, цена которым - человеческая жизнь? Ответить на все эти вопросы предстоит ведущему аналитику МУРа Анастасии Каменской...
Фильм 5: Шестерки умирают первыми / (2000)
Каждое воскресенье в Подмосковье гибнут люди. Жертв убийств, связывает между собой только одно - "почерк" киллера: снайперский выстрел в голову. Пытаясь вычислить систему, по которой действует загадочный стрелок, майор Каменская выходит на след преступника и снимает тяжкие подозрения со своего коллеги...
Фильм 6: Смерть и немного любви / (2000)
В один и тот же день в разных ЗАГСах Москвы выстрелом в упор убиты невесты. Красное на белом - именно это сочетание цветов прельщает неизвестного маньяка. Быть может, так мстит за чужое счастье покинутая женщина? По стечению обстоятельств, вступающая в брак Анастасия Каменская оказывается в одном ЗАГСе с убийцей. Возможно, снимки, сделанные подрабатывающим на свадьбах фотографом, помогут следствию...
Фильм 7: Чужая маска / (2000)
В подъезде собственного дома убит известный писатель Параскевич - автор популярных любовных романов. Вдова погибшего, Светлана, намерена сама издать последне произведение своего мужа, требуя за книгу баснословный гонорар. Майор Каменская, расследуя преступление, считает необходимым произвести авторскую экспертизу текста, в ходе которой выясняются совершенно неожиданные подробности...
Фильм 8: Не мешайте палачу / (2000)
Необычное задание получает Анастасия Каменская - встретить из колонии и обеспечить безопасность на пути в Москву только что освободившемуся человеку, о котором ей известно лишь, что фамилия его - Сауляк. Вернувшись в столицу и начав расследование серии загадочных преступлений, жертвами которых становятся виновные в жестоких убийствах люди, майор Каменская и не подозревала, что снова встретится со своим подопечным... Необычное задание получает Анастасия Каменская - встретить из колонии и обеспечить безопасность на пути в Москву только что освободившемуся человеку, о котором ей известно лишь, что фамилия его - Сауляк. Вернувшись в столицу и начав расследование серии загадочных преступлений, жертвами которых становятся виновные в жестоких убийствах люди, майор Каменская и не подозревала, что снова встретится со своим подопечным...

MediaInfo

General
Format : AVI
Format/Info : Audio Video Interleave
File size : 571 MiB
Duration : 51mn 58s
Overall bit rate : 1 535 Kbps
Writing application : VirtualDubMod 1.5.10.3 | www.virtualdub-fr.org || (build 2550/release)
Writing library : VirtualDubMod build 2550/release
Video
ID : 0
Format : MPEG-4 Visual
Format profile : Advanced Simple@L5
Format settings, BVOP : 1
Format settings, QPel : No
Format settings, GMC : No warppoints
Format settings, Matrix : Custom
Codec ID : XVID
Codec ID/Hint : XviD
Duration : 51mn 58s
Bit rate : 1 340 Kbps
Width : 688 pixels
Height : 416 pixels
Display aspect ratio : 1.654
Frame rate : 25.000 fps
Color space : YUV
Chroma subsampling : 4:2:0
Bit depth : 8 bits
Scan type : Progressive
Compression mode : Lossy
Bits/(Pixel*Frame) : 0.186
Stream size : 496 MiB (87%)
Writing library : XviD 73
Audio
ID : 1
Format : AC-3
Format/Info : Audio Coding 3
Mode extension : CM (complete main)
Format settings, Endianness : Big
Codec ID : 2000
Duration : 51mn 58s
Bit rate mode : Constant
Bit rate : 192 Kbps
Channel(s) : 2 channels
Channel positions : Front: L R
Sampling rate : 48.0 KHz
Bit depth : 16 bits
Compression mode : Lossy
Stream size : 71.4 MiB (13%)
Alignment : Split accross interleaves
Interleave, duration : 40 ms (1.00 video frame)
Interleave, preload duration : 500 ms

Скриншоты:

Сравнение с релизом Кинозала

Исходник видимо был один, 8 DVD5 от компании "TWISTER". Вот цитата из MediaInfo файла конкурента:
ЦитатаКто-то писал:Bit rate : 1 686 Kbps
Width : 720 pixels
Height : 432 pixels
Но поскольку при кодировании кроп по горизонтали был в районе 30 пикселей, то у конкурента заведомо грубый апскейл. Смотрим сравнение видео:
http://screenshotcomparison.com/comparison/116966 из которого видно, что несмотря на превосходство в битрейте (1686 против 1340), картинки у конкурента менее четкие. Ещё стоит отметить, что у него имеет место перекроп слева и сверху.
- Каменская 2 / Фильмы: 4 из 4 / Серии: 16 из 16Студия: Рекун-тв
Год выпуска: 2002
Продолжительность: 16 х ~ 00:49:00
Дополнительно: Во втором сезоне 4 фильма, каждый из которых содержит по 4 серии.
Режиссер: Юрий Мороз
В ролях: Елена Яковлева, Егор Бероев, Марина Могилевская, Юрий Мороз, Сергей Никоненко, Сергей Гармаш, Андрей Ильин, Дмитрий Нагиев, Борис Невзоров, Илья Шакунов...
Описание: Убита секретарь известной фирмы Вика Еремина. Каменская узнает, что по совместительству Вика оказывала интимные услуги нужным клиентам. Кроме того, у нее были серьезные проблемы с алкоголем. На первый взгляд, все логично: девушка стала жертвой своего образа жизни. Но такое простое объяснение не устраивает Настю Каменскую. Чтобы детально во всем разобраться, она беседует с близким другом убитой.

Качество: SATRip / DVB - с трансляции "РТР"
Формат: AVI
Видео: 672x432 (1.556:1) или 688х432, 25.000 fps, XviD ~ 1340 kbps avg, 0.186 bit/pixel
Аудио: 48 kHz, Dolby AC3, 2 ch, 192 kbps

Фильмы

Фильм 1: Украденный сон
Убита секретарь известной фирмы Вика Еремина. От близкого друга Вики Каменская узнает странный факт - с детства девушку мучил страшный сон: кричащая женщина с окровавленными ножницами в руках. А однажды Вика заявила, что кто-то подсмотрел ее сон и рассказал по радио...
Фильм 2: Я умер вчера
От взрыва в автомобиле погибают два сотрудника телепрограммы "Лицо без грима". Через некоторое время ее ведущий, популярный тележурналист Александр Уланов, узнает, что существует заказ и на его убийство, который сделала его собственная жена.
Фильм 3: Мужские игры
Генерал Стоянов, преподователь академии МВД, заказывает убийство некоего Нурбагантова, работающего в одном крупном банке. Из разговора Стоянова с членом его секретной организации выясняется, что Нурбагантов - человек с уголовным прошлым - был специально внедрен в банк в качестве служащего,но его опознал начальник охраны банка Вавилов, а потому и уголовника, и Вавилова следует убрать.
Фильм 4: За все надо платить
В лаборатории доктора Бороданкова проводятся секретные эксперименты над людьми. Среди пациентов клиники - научные работники, люди искусства. Под видом обычных витаминов они принимают бальзам, невероятно повышающий работоспособность. Но исследования идут не очень успешно - рецепт до сих пор не найден и почти все пациенты умирают. «Владелец Города», Эдуард Петрович Денисов просит Анастасию Каменскую оказать ему ответную услугу - разобраться в убийстве близкого ему человека. Одновременно с этим неуловимый Арсен хочет заполучить Настю в свою организацию и поставить ее вместо себя.

MediaInfo

General
Format : AVI
Format/Info : Audio Video Interleave
File size : 548 MiB
Duration : 49mn 20s
Overall bit rate : 1 552 Kbps
Writing application : VirtualDubMod 1.5.10.3 | www.virtualdub-fr.org || (build 2550/release)
Writing library : VirtualDubMod build 2550/release
Video
ID : 0
Format : MPEG-4 Visual
Format profile : Advanced Simple@L5
Format settings, BVOP : 1
Format settings, QPel : No
Format settings, GMC : No warppoints
Format settings, Matrix : Custom
Codec ID : XVID
Codec ID/Hint : XviD
Duration : 49mn 20s
Bit rate : 1 351 Kbps
Width : 672 pixels
Height : 432 pixels
Display aspect ratio : 1.556
Frame rate : 25.000 fps
Color space : YUV
Chroma subsampling : 4:2:0
Bit depth : 8 bits
Scan type : Progressive
Compression mode : Lossy
Bits/(Pixel*Frame) : 0.186
Stream size : 477 MiB (87%)
Writing library : XviD 73
Audio
ID : 1
Format : AC-3
Format/Info : Audio Coding 3
Mode extension : CM (complete main)
Format settings, Endianness : Big
Codec ID : 2000
Duration : 49mn 20s
Bit rate mode : Constant
Bit rate : 192 Kbps
Channel(s) : 2 channels
Channel positions : Front: L R
Sampling rate : 48.0 KHz
Bit depth : 16 bits
Compression mode : Lossy
Stream size : 67.8 MiB (12%)
Alignment : Split accross interleaves
Interleave, duration : 40 ms (1.00 video frame)
Interleave, preload duration : 500 ms

Скриншоты:

Сравнение с релизом Кинозала

Второй сезон никогда не выходил в DVD формате. На просторах сети нет ни одной ссылки, где упоминалось бы о DVD этого сезона. Скорее всего исходник у конкурента был другой, чем у меня, однако это был тоже DVB с трансляции "РТР". Данный сезон включен в раздачу для полноты сериала. Вот цитата из MediaInfo файла конкурента:
ЦитатаКто-то писал:Codec ID/Hint : DivX 5
Старинный кодек, который употреблялся в прошлом тысячелетии. Смотрим сравнение видео:
http://screenshotcomparison.com/comparison/117004/ из которого видно, что картинки у конкурента менее четкие. Ещё стоит отметить, что у него имеет место перекроп. Ещё, если присмотреться к нижнему правому углу картинки конкурента, то там тоже размыто виден логотип телекнала РТР.
Теперь об аудио. Цитата из MediaInfo файла конкурента:
ЦитатаКто-то писал:Bit rate mode : Variable
Bit rate : 96.0 Kbps
Channel(s) : 1 channel
У конкурента одноканальный МР3 с переменным битрейтом, у меня АС3 стерео...
- Каменская 3 / Фильмы: 4 из 4 / Серии: 16 из 16Студия: Racoon-Kino
Год выпуска: 2003
Продолжительность: 16 х ~ 00:43:30
Дополнительно: В третьем сезоне 4 фильма, каждый из которых содержит по 4 серии.
Режиссер: Юрий Мороз
В ролях: Елена Яковлева, Сергей Гармаш, Сергей Никоненко, Андрей Ильин, Андрей Панин, Станислав Дужников, Дмитрий Нагиев, Александр Феклистов, Евгений Писарев, Регина Мянник...
Описание: Продолжение детективного телесериала по романам Александры Марининой. Снят по романам «Иллюзия греха», «Когда боги смеются», «Стилист» и «Седьмая жертва». Состоит из 16 серий, по 4 серии на каждый роман.

Качество 1 - 3 фильмов: DVDRip / 6 Х DVD5 - диски, найденные в сети
Формат: AVI
Видео: 688x400 (1.72:1) или 688x384, 25.000 fps, XviD ~ 1340 kbps avg, 0.196 bit/pixel
Аудио: 48 kHz, Dolby AC3, 2 ch, 192 kbps, русский
Качество 4-го фильма: DVDRip / DVD9 и DVD5 - лицензионные диски от компании "CP Digital"
Формат: AVI
Видео: 720x432 (1.667:1), 25.000 fps, XviD ~ 1340 kbps avg, 0.173 bit/pixel
Аудио: 48 kHz, Dolby AC3, 5.1 ch, 448 kbps, русский

Фильмы

Фильм 1: Иллюзия греха
Настя Каменская расследует дело об убийстве пожилой женщины, которая, как выясняется, была знакома с некоей Галиной Терёхиной, шесть лет назад выбросившейся из окна вместе со своими детьми. Этот случай привлекает внимание Насти. Она выясняет, что дети и сама Галина остались инвалидами, а старшая дочь несостоявшейся самоубийцы — Ирина, видевшая момент суицида, делает всё, чтобы материально помочь своей семье. Кроме того, находящихся в специальной клинике пострадавших детей навещает «дядя Саша», о существовании которого Ирина раньше не знала. Ирина сдает две комнаты в квартире. Один жилец — Волохов — к ней предельно внимателен и старается помогать, второй — выходец с Кавказа по имени Ильяс.
Фильм 2: Когда боги смеются
В ночном клубе во время выступления группы «Би-Би-Си» один из посетителей оскорбительно отзывается о солистке группы Светлане Медведевой. За ним пристально наблюдает молодой парень. В ту же ночь разбушевавшегося посетителя убивают. Майор милиции Анастасия Каменская приступает к расследованию этого запутанного дела. Выясняется, что произошло несколько похожих убийств. Единственное, что объединяло жертв, — посещение концертов группы «Би-Би-Си».
Фильм 3: Стилист
Анастасия Каменская начинает расследование очередной серии зверских убийств. Все жертвы — молодые люди, которых объединяет пристрастие к наркотикам и визитные карточки гей клуба «Шанс», найденные среди вещей. Последний труп обнаружен около загородного поселка «Мечта». Приехав туда, Каменская встречает своего бывшего возлюбленного — Соловьева. Доценко наводит справки. Все жертвы действительно были постоянными клиентами клуба «Шанс» и водили дружбу с неким Михаилом Черкасовым. Коротков арестовывает Черкасова по подозрению в убийствах. Параллельно с этими событиями два молодых человека, Ваня и Дима, оказываются пленниками какого-то сумасшедшего. Он держит их в глубокой земляной яме, изредка, подбрасывая очередную дозу наркотиков.
Фильм 4: Седьмая жертва
Каменская и Томилина принимают участие в телемосте «Женщины необычных профессий». Во время эфира ведущий зачитывает послание одного из зрителей. В послании угроза. Но кому она адресована? Каменской или Томилиной? Обнаружен труп женщины, накануне принимавшей участие в телемосте. Именно она передала ведущему зловещее послание. Возле трупа найдена керамическая рыбка с широко открытой пастью и пластмассовый голыш. Томилина и Каменская начинают проверять своих бывших подследственных, возможно, кто-то из них решил отомстить. Настя дает необычное прозвище убийце — Шутник.

MediaInfo 1 - 3 фильмов

General
Format : AVI
Format/Info : Audio Video Interleave
File size : 473 MiB
Duration : 42mn 55s
Overall bit rate : 1 539 Kbps
Writing application : VirtualDubMod 1.5.10.3 | www.virtualdub-fr.org || (build 2550/release)
Writing library : VirtualDubMod build 2550/release
Video
ID : 0
Format : MPEG-4 Visual
Format profile : Advanced Simple@L5
Format settings, BVOP : 1
Format settings, QPel : No
Format settings, GMC : No warppoints
Format settings, Matrix : Custom
Codec ID : XVID
Codec ID/Hint : XviD
Duration : 42mn 55s
Bit rate : 1 340 Kbps
Width : 688 pixels
Height : 400 pixels
Display aspect ratio : 1.720
Frame rate : 25.000 fps
Color space : YUV
Chroma subsampling : 4:2:0
Bit depth : 8 bits
Scan type : Progressive
Compression mode : Lossy
Bits/(Pixel*Frame) : 0.194
Stream size : 411 MiB (87%)
Writing library : XviD 73
Audio
ID : 1
Format : AC-3
Format/Info : Audio Coding 3
Mode extension : CM (complete main)
Format settings, Endianness : Big
Codec ID : 2000
Duration : 42mn 55s
Bit rate mode : Constant
Bit rate : 192 Kbps
Channel(s) : 2 channels
Channel positions : Front: L R
Sampling rate : 48.0 KHz
Bit depth : 16 bits
Compression mode : Lossy
Stream size : 58.9 MiB (12%)
Alignment : Split accross interleaves
Interleave, duration : 40 ms (1.00 video frame)
Interleave, preload duration : 500 ms

MediaInfo 4 фильма

General
Format : AVI
Format/Info : Audio Video Interleave
File size : 567 MiB
Duration : 44mn 2s
Overall bit rate : 1 800 Kbps
Writing application : VirtualDubMod 1.5.10.3 | www.virtualdub-fr.org || (build 2550/release)
Writing library : VirtualDubMod build 2550/release
Video
ID : 0
Format : MPEG-4 Visual
Format profile : Advanced Simple@L5
Format settings, BVOP : 1
Format settings, QPel : No
Format settings, GMC : No warppoints
Format settings, Matrix : Custom
Codec ID : XVID
Codec ID/Hint : XviD
Duration : 44mn 2s
Bit rate : 1 342 Kbps
Width : 720 pixels
Height : 432 pixels
Display aspect ratio : 1.667
Frame rate : 25.000 fps
Color space : YUV
Chroma subsampling : 4:2:0
Bit depth : 8 bits
Scan type : Progressive
Compression mode : Lossy
Bits/(Pixel*Frame) : 0.173
Stream size : 423 MiB (75%)
Writing library : XviD 73
Audio
ID : 1
Format : AC-3
Format/Info : Audio Coding 3
Mode extension : CM (complete main)
Format settings, Endianness : Big
Codec ID : 2000
Duration : 44mn 2s
Bit rate mode : Constant
Bit rate : 448 Kbps
Channel(s) : 6 channels
Channel positions : Front: L C R, Side: L R, LFE
Sampling rate : 48.0 KHz
Bit depth : 16 bits
Compression mode : Lossy
Stream size : 141 MiB (25%)
Alignment : Split accross interleaves
Interleave, duration : 40 ms (1.00 video frame)
Interleave, preload duration : 500 ms

Скриншоты:

Сравнение с релизом Кинозала

Рипы делались с известных шести DVD дисков, которые лежали в сети, а также с 2-х лицензионных дисков. Рипы конкурента делались с DVB (трансляция телекомпании РТР). Вот снимки двух кадров рипов конкурента из разных серий (первый снимок, это кадр № 10413 из 16-й серии фильма, про второй просто не помню):
В моём релизе таких кадров не найти. А это ссылка на реальный DVD9 из третьего сезона: http://www.ozon.ru/context/detail/id/3395215/ Вот цитата из MediaInfo файла конкурента:
ЦитатаКто-то писал:Codec ID/Hint : DivX 5
Старинный кодек, который употреблялся в прошлом тысячелетии. Здесь честный DVDRip, а не замаскированный SATRip. Смотрим сравнение видео:
http://screenshotcomparison.com/comparison/121358 - no comment. Теперь об аудио, вот фрагмент из MediaInfo файла конкурента (таких файлов 12 из 16-и):
ЦитатаКто-то писал:Codec ID/Hint : MP3
Bit rate : 96.0 Kbps
Channel(s) : 1 channel
Т.е. там МР3 1 канал, у меня АС3 стерео и АС3 5.1.
- Каменская 4 / Фильмы: 3 из 3 / Серии: 12 из 12Студия: Рекун-ТВ
Год выпуска: 2005
Продолжительность: 12 х ~ 00:43:00
Дополнительно: В четвертом сезоне 3 фильма, каждый из которых содержит по 4 серии.
Режиссер: Александр Аравин
В ролях: Елена Яковлева, Сергей Гармаш, Дмитрий Нагиев, Андрей Ильин, Наталья Швец, Марина Могилевская, Борис Невзоров, Виталий Шаповалов, Александр Федоров, Эльвира Данилина...
Описание: Анастасия Каменская и ее команда — Коротков, Лесников и Доценко — расследуют новые сложные преступления. В основу нового многосерийного телефильма легли три истории: «Личное дело», «Тень прошлого» и «Двойник». В каждой из них Каменская отчаянно борется за жизни не только невинных людей, но и тех, кто преступил закон.

Качество: DVDRip / 2 Х DVD9 R5 - лицензионные диски от компании "CP Дистрибуция"
Формат: AVI
Видео: 720x432 (1.667:1) или 704х416, 25.000 fps, XviD ~ 1340 kbps avg, 0.172 bit/pixel
Аудио: 48 kHz, Dolby AC3, 6 ch, 448 kbps

Фильмы

Фильм 1: Личное дело
После опасного и страшного расследования дела Шутника Настя Каменская решает уйти с работы. Однако, волею обстоятельств, она оказывается вовлечена в новое расследование. Каменская и Чистяков едут в долгожданный отпуск на море. Но неотложные дела заставляют Настиного мужа уехать раньше. Саму Настю все еще мучают кошмары, связанные с делом маньяка, которое она вела. В Чистякова влюбляется Юлия - его коллега по работе. Каменская ревнует, но супруг убеждает ее, что для этого нет причин. Параллельно развивается история следователя прокуратуры Ермилова и его жены Ольги, которая состоит в связи с Георгием Дударевым. Его жена Лена однажды застает любовников вместе. Обманутая женщина требует развода. Но вскоре Лена взрывается в своем автомобиле. Случайным свидетелем происшествия становится слепой юноша Артем, который хочет стать музыкантом...
Фильм 2: Тень прошлого
Молодежная компания сидит на берегу моря. Крепко выпившая девушка идет купаться, один из молодых людей следует за ней. Проходят годы. Марина возвращается раньше времени из отпуска и находит в квартире пленку, на которой заснята обнаженная девушка. Ее муж - Александр Стрельников - говорит, что это кассета друга. Марина не верит и нанимает частного детектива, чтобы тот проследил за супругом. У Стрельникова личный абонентский ящик, куда приходит корреспонденция с письмами и фотографиями девушек, которым он потом назначает свидания. Коротков в троллейбусе знакомится с девушкой Милой. Позже ту находят задушенной. Рядом с телом лежит фотография мужчины. Коротков узнает в убитой свою попутчицу. Доценко выясняет, что фамилия человека на фото – Стрельников. Стрельников получает фотографию с надписью...
Фильм 3: Двойник
После опасного и страшного расследования дела Шутника Настя Каменская решает уйти с работы. Однако, волею обстоятельств, она оказывается вовлечена в новое расследование. Каменская и Чистяков едут в долгожданный отпуск на море. Но неотложные дела заставляют Настиного мужа уехать раньше. Саму Настю все еще мучают кошмары, связанные с делом маньяка, которое она вела. В Чистякова влюбляется Юлия - его коллега по работе. Каменская ревнует, но супруг убеждает ее, что для этого нет причин. Параллельно развивается история следователя прокуратуры Ермилова и его жены Ольги, которая состоит в связи с Георгием Дударевым. Его жена Лена однажды застает любовников вместе. Обманутая женщина требует развода. Но вскоре Лена взрывается в своем автомобиле. Случайным свидетелем происшествия становится слепой юноша Артем, который хочет стать музыкантом...

MediaInfo

General
Format : AVI
Format/Info : Audio Video Interleave
File size : 566 MiB
Duration : 44mn 6s
Overall bit rate : 1 794 Kbps
Writing application : VirtualDubMod 1.5.10.3 | www.virtualdub-fr.org || (build 2550/release)
Writing library : VirtualDubMod build 2550/release
Video
ID : 0
Format : MPEG-4 Visual
Format profile : Advanced Simple@L5
Format settings, BVOP : 1
Format settings, QPel : No
Format settings, GMC : No warppoints
Format settings, Matrix : Custom
Codec ID : XVID
Codec ID/Hint : XviD
Duration : 44mn 6s
Bit rate : 1 337 Kbps
Width : 720 pixels
Height : 432 pixels
Display aspect ratio : 1.667
Frame rate : 25.000 fps
Color space : YUV
Chroma subsampling : 4:2:0
Bit depth : 8 bits
Scan type : Progressive
Compression mode : Lossy
Bits/(Pixel*Frame) : 0.172
Stream size : 422 MiB (74%)
Writing library : XviD 73
Audio
ID : 1
Format : AC-3
Format/Info : Audio Coding 3
Mode extension : CM (complete main)
Format settings, Endianness : Big
Codec ID : 2000
Duration : 44mn 6s
Bit rate mode : Constant
Bit rate : 448 Kbps
Channel(s) : 6 channels
Channel positions : Front: L C R, Side: L R, LFE
Sampling rate : 48.0 KHz
Bit depth : 16 bits
Compression mode : Lossy
Stream size : 141 MiB (25%)
Alignment : Split accross interleaves
Interleave, duration : 40 ms (1.00 video frame)
Interleave, preload duration : 500 ms

Скриншоты:

Сравнение с релизом Кинозала

Исходник видимо был один, 2 DVD9 от компании "CP Дистрибуция".
Смотрим сравнение видео:
http://screenshotcomparison.com/comparison/117104 из которого видно, что несмотря на некоторое превосходство в битрейте, картинки у конкурента чуть менее четкие. Ещё стоит отметить, что у него имеет место перекроп слева и справа.
- Каменская 5 / Фильмы: 6 из 6 / Серии: 12 из 12Студия: Рекун-ТВ
Год выпуска: 2008
Продолжительность: 12 х ~ 00:44:00
Дополнительно: В пятом сезоне 6 фильмов, каждый из которых содержит по 2 серии.
Режиссер: Антон Сиверс
В ролях: Елена Яковлева, Андрей Ильин, Сергей Никоненко, Станислав Дужников, Олег Андреев, Дмитрий Нагиев, Ирина Розанова, Андрей Панин, Ервант Арзуманян, Сергей Лосев...
Описание: В фильме появляются новые персонажи, некоторые знакомые герои покидают проект. Изменяется сам стиль фильма, он становится более ироничным и менее насыщенным сценами насилия.

Качество: DVDRip / 2 Х DVD9 R5 - лицензионные диски от компании "CP Дистрибуция"
Формат: AVI
Видео: 720x400 (16:9), 25.000 fps, XviD ~ 1340 kbps avg, 0.186 bit/pixel
Аудио: 48 kHz, Dolby AC3, 6 ch, 448 kbps

Фильмы

Фильм 1: Реквием
В Москве при таинственных обстоятельствах погибает молодой милиционер. Свидетельницей убийства становится его девушка Лера Немчинова. Дело передают на Петровку. Начальство Гордеева настаивает на рассмотрении версии возможной связи курсантов с криминальными структурами.
Каменская параллельно начинает разрабатывать свою версию. Дело в том, что Лера - дочь известного композитора, погибшего десять лет назад. Немчинов был застрелен на собственной даче, а в убийстве сознался его отец - дед Леры. Отбыв наказание, Немчинов-старший вернулся в Москву и сейчас проживает вместе с внучкой. Каменская встречается с Лерой. На руке девушки она видит кольцо, которое проходило по делу об убийстве жены высокопоставленного чиновника. Убийство, совершенное несколько лет назад, так и не было раскрыто, а дорогое ювелирное изделие больше никто не видел.
Фильм 2: Воющие псы одиночества
1998 год. Гордеев случайно оказывается свидетелем преступления - убита девушка. Он задерживает убийцу. Это маньяк, на счету которого больше десятка подобных преступлений. Все жертвы – студентки, на трупах убийца оставляет поздравительные открытки. Медицинская экспертиза признает его невменяемым и отправляет на принудительное лечение. Наши дни. В институте, где учится дочь Гордеева, происходит убийство. На трупе студентки находят открытку с поздравлением. Следствию удается выяснить, что две недели назад маньяку удалось сбежать из психиатрической лечебницы, а потерпевшая - не случайная жертва, именно ее отец был следователем по делу маньяка. Поиски маньяка не дают никаких результатов. Тем временем убивают сына еще одного участника того судебного процесса. Таких совпадений не бывает. Гордеев понимает, что следующей жертвой может стать его собственная дочь. Вместе с Каменской они должны выйти на след маньяка раньше, чем он доберется до Лены Гордеевой.
Фильм 3: Имя потерпевшего - никто
В Москве убит известный врач-стоматолог - Яков Горобецкий. Труп обнаруживает сын убитого - Виталий. Результаты работы экспертов приводят следствие к неожиданному открытию. Виталий не родной сын Горобецкого. Его настоящий отец - Бахтемьев - возглавлял крупную преступную группировку в Петербурге, его арестовали и расстреляли в начале восьмидесятых. Мать Виталия вышла замуж за Горобецкого, который и усыновил мальчика. В ходе расследования Каменская выясняет, что в Петербурге убита мать Бахтемьева-старшего. Предполагаемого убийцу задержали, но ему удалось бежать. Каменская едет в Петербург.
Фильм 4: Посмертный образ
В рамках обмена опытом с иностранными коллегами Гордеев и Каменская едут в Финляндию. В гостинице, где они живут, происходит убийство. Жертва - молодая российская актриса. Каменская участвует в расследовании. В круг подозреваемых попадают все члены съемочной группы. У каждого из них были основания свести счеты с жертвой. Однако в ходе расследования выясняется, что в детстве с актрисой случилось нечто ужасное. И только разобравшись в деле десятилетней давности, Каменской удастся вычислить убийцу.
Фильм 5: Соавторы
Убита жена крупного ресторатора Сафронова - Елена. Сафронов настаивает на том, чтобы этим делом занялись на Петровке. С самого начала Каменская подозревает именно бизнесмена в убийстве жены. Однако вскоре выясняется, что у Лены был любовник. Но Насте не удается с ним встретиться. Узнав о смерти Елены, Василий покончил жизнь самоубийством. В своей предсмертной записке в убийстве любимой, он обвиняет Сафронова. Доценко задерживает помощника ресторатора, но тут в дело вмешиваются сотрудники ФСБ.
Фильм 6: Закон трех отрицаний
После неудачного падения Каменская ломает ногу и оказывается в больнице. Спустя два месяца улучшение так и не наступает. Томилина рекомендует ей обратиться к психологу Аничковой, возможно, она сумеет помочь. Настя не успевает связаться с врачом, Аничкову убивают. Расследование этого преступления поручают Доценко. Миша предлагает Каменской пожить у него на даче, свежий воздух наверняка ускорит выздоровление. В первую же ночь в загородном доме Каменская видит человека, который наблюдает за участком. Доценко встречается с пациентами Аничковой. Она консультировала сотрудников фирмы "Планета". Племянник убитой Геннадий рассказывает, что незадолго до убийства, он стал свидетелем скандала между Аничковой и кем-то из ее клиенток, но лица женщины он не видел. Доценко берет родственника жертвы на корпоративное мероприятие "Планеты", Геннадий должен постараться вычислить даму по голосу. Во время мероприятия единственного свидетеля тоже убивают. За дачей Доценко продолжает следить некий человек. Каменская напугана. Вместе с Томилиной они решают найти таинственную пациентку самостоятельно.

MediaInfo

General
Format : AVI
Format/Info : Audio Video Interleave
File size : 567 MiB
Duration : 44mn 6s
Overall bit rate : 1 797 Kbps
Writing application : VirtualDubMod 1.5.10.3 | www.virtualdub-fr.org || (build 2550/release)
Writing library : VirtualDubMod build 2550/release
Video
ID : 0
Format : MPEG-4 Visual
Format profile : Advanced Simple@L5
Format settings, BVOP : 1
Format settings, QPel : No
Format settings, GMC : No warppoints
Format settings, Matrix : Custom
Codec ID : XVID
Codec ID/Hint : XviD
Duration : 44mn 6s
Bit rate : 1 340 Kbps
Width : 720 pixels
Height : 400 pixels
Display aspect ratio : 16:9
Frame rate : 25.000 fps
Color space : YUV
Chroma subsampling : 4:2:0
Bit depth : 8 bits
Scan type : Progressive
Compression mode : Lossy
Bits/(Pixel*Frame) : 0.186
Stream size : 422 MiB (75%)
Writing library : XviD 73
Audio
ID : 1
Format : AC-3
Format/Info : Audio Coding 3
Mode extension : CM (complete main)
Format settings, Endianness : Big
Codec ID : 2000
Duration : 44mn 6s
Bit rate mode : Constant
Bit rate : 448 Kbps
Channel(s) : 6 channels
Channel positions : Front: L C R, Side: L R, LFE
Sampling rate : 48.0 KHz
Bit depth : 16 bits
Compression mode : Lossy
Stream size : 141 MiB (25%)
Alignment : Split accross interleaves
Interleave, duration : 40 ms (1.00 video frame)
Interleave, preload duration : 500 ms

Скриншоты:

Сравнение с релизом Кинозала

Исходник видимо был один, 2 DVD9 от компании "CP Дистрибуция".
Смотрим сравнение видео:
http://screenshotcomparison.com/comparison/117111 из которого видно, что несмотря на некоторое превосходство в битрейте, картинки у меня ничуть не хуже. Ещё стоит отметить, что у него имеет место перекроп со всех сторон.
- Каменская 6 / Фильмы: 6 из 6 / Серии: 12 из 12Студия: Рекун-ТВ
Год выпуска: 2011
Продолжительность: 12 х ~ 00:44:00
Дополнительно: В шестом сезоне 6 фильмов, каждый из которых содержит по 2 серии.
Режиссеры: Марат Ким, Егор Анашкин
В ролях: Елена Яковлева, Андрей Ильин, Олег Андреев, Станислав Дужников, Дмитрий Нагиев, Вероника Лысакова, Сергей Никоненко, Андрей Панин, Ирина Розанова, Лидия Милюзина...
Описание: В этом сезоне Каменская станет руководителем аналитического отдела Петровки. Её помощниками станут Доценко и Дюжин, а бессменным начальником остаётся полковник Гордеев. Настя Каменская отметит юбилей, займется танцами и найдет и нового поклонника! В премьерных сериях у Каменской появится новый постоянный член команды — Дюжин. Этого чудаковатого, увлеченного мистикой следователя Каменская возьмет под свою опеку. Также в премьерных сериях появится знакомый Насти, участковый милиционер — Игорь Дорошин. Молодой следователь работает в милиции из романтических побуждений, хочет защитить слабых, и это дело для него почти хобби, потому что деньги Дорошин зарабатывает другим способом — сочинением песен.

Качество: DVDRip / 2 Х DVD9 R5 - лицензионные диски от компании "CP Дистрибуция"
Формат: AVI
Видео: 720x400 (16:9), 25.000 fps, XviD ~ 1340 kbps avg, 0.186 bit/pixel
Аудио: 48 kHz, Dolby AC3, 6 ch, 448 kbps

Фильмы

Фильм 1: Вспомнить - нельзя
2000 год, провинциальный город. Сотрудница прокуратуры Еремина сбивает на своей машине выбежавших на проезжую часть детей. На суде женщину полностью оправдывают, и она переводится в Москву. Проходит десять лет. Еремину убивают. По подозрению в убийстве задерживают ранее угрожавшего ей молодого человека - Згоева. Его невеста погибла в автомобильной аварии, а Еремина добилась полного оправдания водителя, который врезался в машину Згоева, хотя Згоев утверждает, что парень был пьян. После суда Згоев публично угрожал Ереминой, при задержании он пытается сбежать, и его ранят. Каменская не верит в его виновность. Вместе с Доценко они отправляются в тот самый город, в котором много лет назад жила Еремина. Пашин покончил жизнь самоубийством. Он оставляет предсмертную записку, в которой признается в убийстве Ереминой. Гордеев и следователи готовы закрывать дело. Каменская встречается с Полевичами и Крыловой. Неожиданно всплывают новые обстоятельства аварии, в которой пострадал сын Пашина.
Фильм 2: Простая комбинация
Убита молодая успешная женщина - Данилевская. В совершении убийства подозревают ее мужа Влада, но разыскать его оперативникам не удается. Информация о том, что покойная собиралась разводиться, лишь подтверждает подозрения следователей, но Каменская выясняет, что незадолго до смерти у Данилевской начался роман с таинственным мужчиной по имени Игорь. Доценко удается установить его место жительства. Однако вскоре выясняется, что Игорь недавно съехал. Единственная зацепка – доктор из города Реченска. Доценко и Каменская под видом супружеской пары приезжают в Реченск. Им необходимо установить связь между Белозеровым и доктором. На их глазах задерживают любовницу доктора Людмилу по подозрению в убийстве ее мужа. Человек Белозерова следит за Каменской и Доценко. Каменская решает встретиться с Белозеровым.
Фильм 3: Городской тариф
Исчезает невеста высокопоставленного сотрудника наркоконтроля Милена. Спустя сутки в квартире служащего строительной фирмы Канунникова обнаруживают ее труп. Хозяина квартиры найти не удается. Его сестра опознает Милену как невесту Канунникова. Ольшанский склоняется к тому, что убийство совершено на почве ревности. Седов узнает об измене Милены и убивает ее. В работе Каменской помогает обаятельный участковый Дорошин. Оперативники отрабатывают еще одну версию – Милену убили, чтобы надавить на Седова. Накануне смерти Милены за Седовым следили неизвестные. Каменская и Дорошин встречаются с бывшей женой Седова Ольгой.
Фильм 4: Замена объекта
Игорь Дорошин приглашает Каменскую и Чистякова на премьерный спектакль своего отца – знаменитого оперного певца. На выходе из театра Каменская сталкивается с киллером. Лишь по счастливой случайности она остается жива. Но гибнет другая женщина, Алла Сороченко, и ее охранник. Задержан муж Сороченко. Все улики против него. В компьютере Сороченко оперативники находят переписку личного характера. Дорошин-старший после случившегося в театре попадает с сердечным приступом в больницу. Игорь Дорошин пытается вызвать отца на откровенный разговор о Сороченко. Каменская сомневается – была ли именно Сороченко основной целью киллера?
Фильм 5: Черный список
Накануне открытия кинофестиваля его организаторы получают письма с угрозами. Гордеев отправляет Каменскую на место проведения мероприятия, чтобы убедиться в несерьезности этих предупреждений. Фестиваль проходит в старинном замке. К моменту приезда Каменской погибает актриса. Официальная версия - самоубийство, но местные жители уверены, что гости фестиваля нарушили покой Черного Яна и он вернулся. После задержания Жени совершено еще одно преступление. Каменская и Лесников ведут собственное расследование. Кто-то очень умело использует легенду о Черном Яне в своих целях. Если подозрения Каменской подтвердятся, Лиля может стать следующей жертвой.
Фильм 6: Пружина для мышеловки
Убита известная писательница Истомина, делом об убийстве занимается отдел Гордеева. Вскоре к Каменской приходит молодой человек по фамилии Мусатов. Он собирался встретиться с Истоминой накануне ее смерти - Мусатов уверен, что она обладала важной информацией о его отце, Личко, осужденном тридцать лет назад за серию жестоких убийств. Следователя, который вел дело отца Мусатова, тоже убивают. Кто-то очень не хочет, чтобы правда о серии преступлений всплыла даже спустя столько лет. Главной свидетельницей по делу Личко проходила некто Шляхтина, но и она погибла много лет назад. Каменская находит ее друга, Ситникова. Но внезапно в деле появляется новый фигурант, он признается в преступлениях, в которых обвиняли Личко.

MediaInfo

General
Format : AVI
Format/Info : Audio Video Interleave
File size : 565 MiB
Duration : 44mn 0s
Overall bit rate : 1 796 Kbps
Writing application : VirtualDubMod 1.5.10.3 | www.virtualdub-fr.org || (build 2550/release)
Writing library : VirtualDubMod build 2550/release
Video
ID : 0
Format : MPEG-4 Visual
Format profile : Advanced Simple@L5
Format settings, BVOP : 1
Format settings, QPel : No
Format settings, GMC : No warppoints
Format settings, Matrix : Custom
Codec ID : XVID
Codec ID/Hint : XviD
Duration : 44mn 0s
Bit rate : 1 340 Kbps
Width : 720 pixels
Height : 400 pixels
Display aspect ratio : 16:9
Frame rate : 25.000 fps
Color space : YUV
Chroma subsampling : 4:2:0
Bit depth : 8 bits
Scan type : Progressive
Compression mode : Lossy
Bits/(Pixel*Frame) : 0.186
Stream size : 421 MiB (75%)
Writing library : XviD 73
Audio
ID : 1
Format : AC-3
Format/Info : Audio Coding 3
Mode extension : CM (complete main)
Format settings, Endianness : Big
Codec ID : 2000
Duration : 44mn 0s
Bit rate mode : Constant
Bit rate : 448 Kbps
Channel(s) : 6 channels
Channel positions : Front: L C R, Side: L R, LFE
Sampling rate : 48.0 KHz
Bit depth : 16 bits
Compression mode : Lossy
Stream size : 141 MiB (25%)
Alignment : Split accross interleaves
Interleave, duration : 40 ms (1.00 video frame)
Interleave, preload duration : 500 ms

Скриншоты:

Сравнение с релизом Кинозала

Исходник видимо был один, 2 DVD9 от компании "CP Дистрибуция".
Смотрим сравнение видео:
http://screenshotcomparison.com/comparison/117113 из которого видно, что несмотря на некоторое превосходство в битрейте, картинки у меня ничуть не хуже. Ещё стоит отметить, что у него имеет место перекроп слева, а у меня небольшой сверху.
И в заключении сравнение всего релиза: я просто выбирал из исходников лучшее, что на данный момент есть в сети, использовал последнюю версию кодека XviD и аудио не опускал ниже АС3 192 кбпс. Релиз, хоть и не намного, но меньше по размеру, чем у конкурента. И, что важно, нет тут файлов, закодированных кодеком DivX, на который многие ругались.
Торрент файл обновлен 11 апреля. Заменены 4 серии фильма "Каменская-3 Седьмая жертва" на рипы с лицензионных дисков от CP Digital.
[Профиль] [ЛС]
Показать сообщения:    

Текущее время: Сегодня 04:14

Часовой пояс: GMT



Вы не можете начинать темы
Вы не можете отвечать на сообщения
Вы не можете редактировать свои сообщения
Вы не можете удалять свои сообщения
Вы не можете голосовать в опросах
Вы не можете прикреплять файлы к сообщениям
Вы не можете скачивать файлы