Каменные джунгли (Вертикальный город) / Vertical City / 1-2 сезоны, 9 серий из 22 [2008-2009, Документальный, познавательный, HDTV 1080i]

 
Автор Сообщение

TorrentFilm ®

Пол:

Стаж: 2 года

Сообщений: 7741



Награды: Нет

Торрент-статистика

Создавать темы 05-Июл-2015 00:10

[Цитировать]

Каменные джунгли(Вертикальный город)Vertical City
-Годы выпуска: 2008-2009
Страна: Великобритания
Производство: Gallery HD, Electric Sky Productions Ltd.
Жанр: Документальный, познавательный, небоскрёбы
Продолжительность: 21 x ~00:26:35
Режиссёры: Tamar Hacker, Bosie Vincent
В главных ролях: Charlie Luxton, Keith Keaveney, Matt Berman-Перевод: Профессиональный (двухголосый, закадровый) [Студия АРК ТВ]
Русские субтитры: нет-Описание: Трое британских архитекторов - Чарли Лакстон, Кит Кивини и Мэт Берман предпочитают путешествовать по вертикали, взбираясь на самые знаменитые и высокие здания планеты. Они покажут вам грандиозную архитектуру с больших высот и уникальных углов обзора, буквально поднявшись по стенам небоскрёбов. А также ведущие раскроют тайны власти, политики и смелых проектных решений. Добро пожаловать в каменные джунгли на экскурсии по высочайшим сооружениям мира!-Тип релиза: HDTV 1080i
Контейнер: MKV-Видео: AVC H.264, 1920x1080i (16:9), 50i fps, ~7300 kbps, ~0.14,1 bits/pixel
Аудио 1: Russian, MP2, 48KHz, 2 channels, 192 kbps
Аудио 2: English, MP2, 48KHz, 2 channels, 192 kbps-Источник: HDTV-запись с телеканала Travel+Adventure HD от san007-Дополнительная информация: Телеканал Travel+Adventure HD почти во всех своих программах обрезает финальные титры (исключение - "Общепит" и "Базарный день"). Поэтому не удивляйтесь тому, что каждая серия будет резко заканчиваться через 1-2 секунды после последнего слова сказанного переводчиком.
В раздачу включены 2 трейлера передачи которые выполняют роль семплов. Вы можете сначала скачать только их и по ним оценить качество картинки и суть самой передачи.
-Раздача в HDTVRip 720p

Раздачи с Travel+Adventure HD

Путешествие на край света с Артом Вольфом: 1080i, 720p
Путешествие за красотой: 1080i, 720p
Приключения на троих: 1080i, 720p
Путешествие по священной реке Ганг: 1080i, 720p

Список эпизодов

Vertical City - Trailer 1 (1-й трейлер от телеканала Travel+Adventure)
Vertical City - Trailer 2 (2-й трейлер от телеканала Travel+Adventure)

S01E01 One Canada Square, London, UK (Ван Канада Сквер, Лондон, Великобритания) [Чарли Лакстон]
S01E02 Commerzbank, Frankfurt, Germany (Коммерцбанк, Франкфурт, Германия) [Чарли Лакстон]
S01E03 Torre Mayor, Mexico City, Mexico (Торре Майор, Мехико, Мексика) [Кит Кивини]
S01E04 Cira Centre, Philadelphia, USA (Сира Центр, Филадельфия, США) [Кит Кивини]

S01E05 The Turning Torso, Malmo, Sweden (Тернинг Торсо, Мальмё, Швеция [Чарли Лакстон] - нет
S01E06 Eureka Tower, Melbourne, Australia (Башня Эврика, Мельбурн, Австралия) [Кит Кивини]
S01E07 Cologne Cathedral, Cologne, Germany (Кельнский собор, Кельн, Германия) [Чарли Лакстон]
S01E08 The Sears Tower, Chicago, USA (Башня Сирс, Чикаго, США) [Кит Кивини]
S01E09 Q1, Surfers Paradise, Australia (Q1, Серферс Парадайс, Австралия) [Кит Кивини]
S01E10 7-World Trade Center, New York, USA (7 Башня всемирного торгового центра, Нью-Йорк, США) [Чарли Лакстон]

S02E01 Triumph Palace, Moscow, Russia (Триумф Палас, Москва, Россия) [Мэт Берман]
S02E02 World Finance Centre, Shanghai, China (Башня мирового финансового центра, Шанхай, Китай) [Мэт Берман]
S02E03 Beetham Tower, Manchester, UK (Башня Битэм, Манчестер, Великобритания) [Чарли Лакстон]
S02E04 Bank of China, Hong Kong, China (Бэнк оф Чайна, Гонконг, Китай) [Чарли Лакстон]
S02E05 375 Park Avenue, New York, USA (Парк Авеню 375, Нью-Йорк, США) [Чарли Лакстон]
S02E06 Taipei 101, Taipei, Taiwan (Тайбэй 101, Тайбэй, Тайвань) [Мэт Берман]
S02E07 Two IFC, Hong Kong, China (Вторая башня международного финансового центра, Гонконг, Китай) [Мэт Берман]
S02E08 Naberezhnaya Tower, Moscow, Russia (Башня на набережной, Москва, Россия) [Мэт Берман]
S02E09 Petronas Towers, Kuala Lumpur, Malaysia (Башни Петронас, Куала-Лумпур, Малайзия) [Мэт Берман]
S02E10 John Hancock Tower, Boston, USA (Башня Джона Хэнкока, Бостон, США) [Мэт Берман]
S02E11 John Hancock Center, Chicago, USA (Центр Джона Хэнкока, Чикаго, США) [Чарли Лакстон]
S02E12 Peachtree 1180, Atlanta, USA (Пичтри 1180, Атланта, США) [Мэт Берман]

MediaInfo

General
Format : Matroska
Format version : Version 4 / Version 2
File size : 1.46 GiB
Duration : 26mn 43s
Overall bit rate : 7 838 Kbps
Writing application : mkvmerge v7.7.0 ('Six Voices') 64bit
Writing library : libebml v1.3.1 + libmatroska v1.4.2
Video #1
ID : 1
Format : AVC
Format/Info : Advanced Video Codec
Format profile : High@L4.0
Format settings, CABAC : Yes
Format settings, ReFrames : 4 frames
Format settings, GOP : M=4, N=32
Codec ID : V_MPEG4/ISO/AVC
Duration : 26mn 43s
Bit rate : 7 298 Kbps
Width : 1 920 pixels
Height : 1 080 pixels
Display aspect ratio : 16:9
Frame rate mode : Constant
Frame rate : 25.000 fps
Color space : YUV
Chroma subsampling : 4:2:0
Bit depth : 8 bits
Scan type : MBAFF
Bits/(Pixel*Frame) : 0.141
Stream size : 1.36 GiB (93%)
Default : Yes
Forced : No
Audio #2
ID : 2
Format : MPEG Audio
Format version : Version 1
Format profile : Layer 2
Mode : Joint stereo
Mode extension : Intensity Stereo + MS Stereo
Codec ID : A_MPEG/L2
Codec ID/Hint : MP2
Duration : 26mn 43s
Bit rate mode : Constant
Bit rate : 192 Kbps
Channel(s) : 2 channels
Sampling rate : 48.0 KHz
Compression mode : Lossy
Stream size : 36.7 MiB (2%)
Title : Russian
Language : Russian
Default : Yes
Forced : No
Audio #3
ID : 3
Format : MPEG Audio
Format version : Version 1
Format profile : Layer 2
Mode : Joint stereo
Mode extension : Intensity Stereo + MS Stereo
Codec ID : A_MPEG/L2
Codec ID/Hint : MP2
Duration : 26mn 43s
Bit rate mode : Constant
Bit rate : 192 Kbps
Channel(s) : 2 channels
Sampling rate : 48.0 KHz
Compression mode : Lossy
Stream size : 36.7 MiB (2%)
Title : English
Language : English
Default : No
Forced : No
[Профиль] [ЛС]
Показать сообщения:    

Текущее время: Сегодня 14:29

Часовой пояс: GMT



Вы не можете начинать темы
Вы не можете отвечать на сообщения
Вы не можете редактировать свои сообщения
Вы не можете удалять свои сообщения
Вы не можете голосовать в опросах
Вы не можете прикреплять файлы к сообщениям
Вы не можете скачивать файлы