Каменные джунгли (Вертикальный город) / Vertical City / 1-2 сезоны, 9 серий из 22 [2008-2009, Документальный, познавательный, HDTVRip 720p]

 
Автор Сообщение

TorrentFilm ®

Пол:

Стаж: 2 года

Сообщений: 7741



Награды: Нет

Торрент-статистика

Создавать темы 01-Июл-2015 00:10

[Цитировать]

Каменные джунгли(Вертикальный город)Vertical City
-Годы выпуска: 2008-2009
Страна: Великобритания
Производство: Gallery HD, Electric Sky Productoins Ltd
Жанр: Документальный, познавательный, небоскрёбы
Продолжительность: 9 x ~00:26:35
Режиссёры: Tamar Hacker, Bosie Vincent
В главных ролях: Charlie Luxton, Keith Keaveney, Matt Berman-Перевод: Профессиональный (двухголосый, закадровый) [Студия АРК ТВ]
Русские субтитры: нет-Описание: Трое британских архитекторов - Чарли Лакстон, Кит Кивини и Мэт Берман предпочитают путешествовать по вертикали, взбираясь на самые знаменитые небоскрёбы планеты. Они покажут вам грандиозную архитектуру с больших высот и уникальных углов обзора, поднявшись по стенам небоскрёбов. А также ведущие раскроют тайны власти, политики и смелых проектных решений. Добро пожаловать в каменные джунгли на экскурсии по высочайшим сооружениям мира!-Тип релиза: HDTVRip 720p
Контейнер: MKV-Видео: AVC H.264, 1280x720p (16:9), 25p fps, ~3270 kbps, ~0.14,1 bits/pixel
Аудио 1: Russian, MP2, 48KHz, 2 channels, 192 kbps
Аудио 2: English, MP2, 48KHz, 2 channels, 192 kbps-Источник: Рип с HDTV-записи телеканала Travel+Adventure HD
Автор рипа - san007-Дополнительная информация: Телеканал Travel+Adventure HD почти во всех своих программах обрезает финальные титры (исключение - "Общепит" и "Базарный день"). Поэтому не удивляйтесь тому, что каждая серия будет резко заканчиваться через 1-2 секунды после последнего слова сказанного переводчиком.
В раздачу включены 2 трейлера передачи которые выполняют роль семплов. Вы можете сначала скачать только их и по ним оценить качество картинки и суть самой передачи.
-Раздача в HDTV 1080i

Раздачи с Travel+Adventure HD

Путешествие на край света с Артом Вольфом: 1080i, 720p
Путешествие за красотой: 1080i, 720p
Приключения на троих: 1080i, 720p
Путешествие по священной реке Ганг: 1080i, 720p

Список эпизодов

Vertical City - Trailer 1 (1-й трейлер от телеканала Travel+Adventure)
Vertical City - Trailer 2 (2-й трейлер от телеканала Travel+Adventure)

S01E01 One Canada Square, London, UK (Ван Канада Сквер, Лондон, Великобритания) [Чарли Лакстон]
S01E02 Commerzbank, Frankfurt, Germany (Коммерцбанк, Франкфурт, Германия) [Чарли Лакстон]
S01E03 Torre Mayor, Mexico City, Mexico (Торре Майор, Мехико, Мексика) [Кит Кивини]
S01E04 Cira Centre, Philadelphia, USA (Сира Центр, Филадельфия, США) [Кит Кивини]
S01E06 Eureka Tower, Melbourne, Australia (Башня Эврика, Мельбурн, Австралия) [Кит Кивини]
S01E07 Cologne Cathedral, Cologne, Germany (Кельнский собор, Кельн, Германия) [Чарли Лакстон]
S01E08 The Sears Tower, Chicago, USA (Башня Сирс, Чикаго, США) [Кит Кивини]
S01E09 Q1, Surfers Paradise, Australia (Q1, Серферс Парадайс, Австралия) [Кит Кивини]
S01E10 7-World Trade Center, New York, USA (7 Башня всемирного торгового центра, Нью-Йорк, США) [Чарли Лакстон]

MediaInfo

General
Format : Matroska
Format version : Version 4 / Version 2
File size : 695 MiB
Duration : 26mn 43s
Overall bit rate : 3 636 Kbps
Writing application : mkvmerge v7.7.0 ('Six Voices') 64bit
Writing library : libebml v1.3.1 + libmatroska v1.4.2
Video #1
ID : 1
Format : AVC
Format/Info : Advanced Video Codec
Format profile : High@L4.1
Format settings, CABAC : Yes
Format settings, ReFrames : 8 frames
Codec ID : V_MPEG4/ISO/AVC
Duration : 26mn 43s
Bit rate : 3 250 Kbps
Width : 1 280 pixels
Height : 720 pixels
Display aspect ratio : 16:9
Frame rate mode : Constant
Frame rate : 25.000 fps
Color space : YUV
Chroma subsampling : 4:2:0
Bit depth : 8 bits
Scan type : Progressive
Bits/(Pixel*Frame) : 0.141
Stream size : 608 MiB (87%)
Writing library : x264 core 144 r2525 40bb568
Encoding settings : cabac=1 / ref=8 / deblock=1:-1:-1 / analyse=0x3:0x133 / me=umh / subme=9 / psy=1 / psy_rd=1.00:0.10 / mixed_ref=1 / me_range=24 / chroma_me=1 / trellis=2 / 8x8dct=1 / cqm=0 / deadzone=21,11 / fast_pskip=1 / chroma_qp_offset=-3 / threads=6 / lookahead_threads=1 / sliced_threads=0 / nr=0 / decimate=1 / interlaced=0 / bluray_compat=0 / constrained_intra=0 / bframes=8 / b_pyramid=2 / b_adapt=2 / b_bias=0 / direct=3 / weightb=1 / open_gop=0 / weightp=2 / keyint=250 / keyint_min=25 / scenecut=40 / intra_refresh=0 / rc_lookahead=60 / rc=2pass / mbtree=1 / bitrate=3250 / ratetol=1.0 / qcomp=0.60 / qpmin=0 / qpmax=69 / qpstep=4 / cplxblur=20.0 / qblur=0.5 / ip_ratio=1.40 / aq=1:1.00
Default : Yes
Forced : No
Audio #2
ID : 2
Format : MPEG Audio
Format version : Version 1
Format profile : Layer 2
Mode : Joint stereo
Mode extension : Intensity Stereo + MS Stereo
Codec ID : A_MPEG/L2
Codec ID/Hint : MP2
Duration : 26mn 43s
Bit rate mode : Constant
Bit rate : 192 Kbps
Channel(s) : 2 channels
Sampling rate : 48.0 KHz
Compression mode : Lossy
Stream size : 36.7 MiB (5%)
Title : Russian
Language : Russian
Default : Yes
Forced : No
Audio #3
ID : 3
Format : MPEG Audio
Format version : Version 1
Format profile : Layer 2
Mode : Joint stereo
Mode extension : Intensity Stereo + MS Stereo
Codec ID : A_MPEG/L2
Codec ID/Hint : MP2
Duration : 26mn 43s
Bit rate mode : Constant
Bit rate : 192 Kbps
Channel(s) : 2 channels
Sampling rate : 48.0 KHz
Compression mode : Lossy
Stream size : 36.7 MiB (5%)
Title : English
Language : English
Default : No
Forced : No
[Профиль] [ЛС]
Показать сообщения:    

Текущее время: Сегодня 19:37

Часовой пояс: GMT



Вы не можете начинать темы
Вы не можете отвечать на сообщения
Вы не можете редактировать свои сообщения
Вы не можете удалять свои сообщения
Вы не можете голосовать в опросах
Вы не можете прикреплять файлы к сообщениям
Вы не можете скачивать файлы