Калейдоскоп 70 (Фаина Епифанова) [1970, СССР, мультфильм, DVB]

 
Автор Сообщение

TorrentFilm ®

Пол:

Стаж: 2 года

Сообщений: 7741



Награды: Нет

Торрент-статистика

Создавать темы 07-Дек-2015 00:11

[Цитировать]

Калейдоскоп 70
Страна: СССР
Жанр: мультфильм
Продолжительность: 00:09:41
Год выпуска: 1970
Перевод: Не требуется
Русские субтитры: нет
Режиссёр: Фаина Епифанова
Описание: Сюжет N 1: «Просмотрел» История человека, всю жизнь просидевшего у экрана телевизора.
Сюжет N 2: «Дедка и репка» Сатирическая зарисовка о пользе спорта в любом возрасте и о вреде курения.
Сюжет N 3: «Жертва стандарта» О обезличивании отдельного индивидуума в обществе, стремящемся к однотипным стандартам.

Я на :

Качество: DVB
Формат: MPEG-TS
Видео: MPEG Video, 3612 kbps, 704 x 576 (1.333), 25 fps
Аудио: MPEG Audio, 160 kbps, 2 ch, 48 kHz
Субтитры: Отсутствуют

Подробные технические данные

ОбщееИдентификатор : 1 (0x1)Полное имя : D:\zzz_Bardachek\Разное такое\Кино\Калейдоскоп 70.tsФормат : MPEG-TSРазмер файла : 275 МбайтПродолжительность : 9 м. 41 с.Режим общего битрейта : ПеременныйОбщий поток : 3969 Кбит/сек
ВидеоИдентификатор : 1310 (0x51E)Идентификатор меню : 310 (0x136)Формат : MPEG VideoВерсия формата : Version 2Профиль формата : Main@MainПараметр BVOP формата : ДаПараметр матрицы формата : ВыборочнаяПараметр GOP формата : M=3, N=24Структура изображения : FrameИдентификатор кодека : 2Продолжительность : 9 м. 41 с.Вид битрейта : ПеременныйБитрейт : 3612 Кбит/секМаксимальный битрейт : 15,0 Мбит/секШирина : 704 пикселяВысота : 576 пикселейСоотношение сторон : 4:3Частота кадров : 25,000 кадров/секСтандарт вещания : PALЦветовое пространство : YUVСубдискретизация насыщенности : 4:2:0Битовая глубина : 8 битТип развёртки : ЧересстрочнаяПорядок развёртки : Верхнее поле первоеМетод сжатия : С потерямиБит/(Пиксели*Кадры) : 0.356Временной код первого кадра : 00:00:00:00Оригинал временного кода : Group of pictures headerGOP, открыто/закрыто : ОткрытоРазмер потока : 250 Мбайт (91%)
АудиоИдентификатор : 2310 (0x906)Идентификатор меню : 310 (0x136)Формат : MPEG AudioВерсия формата : Version 1Профиль формата : Layer 2Идентификатор кодека : 3Продолжительность : 9 м. 41 с.Вид битрейта : ПостоянныйБитрейт : 160 Кбит/секКаналы : 2 каналаЧастота : 48,0 КГцМетод сжатия : С потерямиРазмер потока : 11,1 Мбайт (4%)Язык : Russian

Скриншоты

Спасибо всем!
[Профиль] [ЛС]
Показать сообщения:    

Текущее время: Сегодня 16:56

Часовой пояс: GMT



Вы не можете начинать темы
Вы не можете отвечать на сообщения
Вы не можете редактировать свои сообщения
Вы не можете удалять свои сообщения
Вы не можете голосовать в опросах
Вы не можете прикреплять файлы к сообщениям
Вы не можете скачивать файлы