Как я провёл этим летом (Алексей Попогребский) [2010, Россия, триллер, BDRip 1080p]

 
Автор Сообщение

TorrentFilm ®

Пол:

Стаж: 2 года

Сообщений: 7741



Награды: Нет

Торрент-статистика

Создавать темы 18-Фев-2016 00:00

[Цитировать]

Как я провёл этим летом«Не ври. Не бойся. Не беги.»- Страна: Россия
Жанр: триллер
Год выпуска: 2010
Продолжительность: 02:04:22-Субтитры: английские (Full)-Режиссер: Алексей Попогребский
В ролях: Григорий Добрыгин (Павел), Сергей Пускепалис (Сергей), Игорь Черневич (Софронов, озвучка), Илья Соболев (Володя, озвучка), Артём Цуканов (Стас, озвучка)
Описание: Начальник полярной станции Сергей и молодой стажер Павел - одни на острове в Северном ледовитом океане. Подходит к концу их вахта. Впервые за много лет Сергей окажется на материке, где его дожидается семья. Окончится летняя практика Павла, а он не испытал и сотой доли тех приключений, на которые рассчитывал, отправляясь в Заполярье.
Единственный канал общения с миром - неустойчивая радиосвязь с центральной базой. В отсутствие Сергея приходит сообщение, с которым Павел попросту не знает, как поступить. Он надеется, что скоро за ними придет теплоход и тогда все разрешится само собой. Но на Крайнем Севере возможно всё. И иногда приходится выбирать между своей жизнью и жизнью другого…

-Релиз от: HQFans
Качество: BDRip/1080p (За исходник спасибо HDCLUB)
Формат: MKV
Видео: 1920x1038, AVC, 25 fps, 7 953 kbps
Аудио: Russian / DTS / 5.1 / 48 kHz / 1536 kbps / 24-bit
Субтитры: английские (Full)
Навигация по главам: 18 шт.

Source vs. Rip HQFans

Media Info

General
Unique ID : 250507596113523190072446224087054884837 (0xBC7602108EC29137BA9B75F909011FE5)
Complete name : D:\VIDEO\HD-Video\Как я провёл этим летом [2010.BDRip.1080p]-HQFans.mkv
Format : Matroska
Format version : Version 2
File size : 8.23 GiB
Duration : 2h 4mn
Overall bit rate : 9 450 Kbps
Movie name : Как я провёл этим летом [2010, BDRip/1080p] || ZUNE@HQFans
Encoded date : UTC 2011-10-09 14:57:54
Writing application : mkvmerge v4.0.0 ('The Stars were mine') сборка от Jun 6 2010 16:18:42
Writing library : libebml v1.0.0 + libmatroska v1.0.0
Attachment : Yes
Video
ID : 1
Format : AVC
Format/Info : Advanced Video Codec
Format profile : High@L4.1
Format settings, CABAC : Yes
Format settings, ReFrames : 4 frames
Codec ID : V_MPEG4/ISO/AVC
Duration : 2h 4mn
Bit rate : 7 752 Kbps
Width : 1 920 pixels
Height : 1 038 pixels
Display aspect ratio : 1.850
Frame rate : 25.000 fps
Color space : YUV
Chroma subsampling : 4:2:0
Bit depth : 8 bits
Scan type : Progressive
Bits/(Pixel*Frame) : 0.156
Stream size : 6.75 GiB (82%)
Title : Как я провёл этим летом [2010, BDRip/1080p] || ZUNE@HQFans
Writing library : x264 core 118 r2085 8a62835
Encoding settings : cabac=1 / ref=4 / deblock=1:-3:-3 / analyse=0x3:0x113 / me=umh / subme=11 / psy=1 / psy_rd=1.00:0.05 / mixed_ref=1 / me_range=48 / chroma_me=1 / trellis=2 / 8x8dct=1 / cqm=0 / deadzone=21,11 / fast_pskip=1 / chroma_qp_offset=-3 / threads=12 / sliced_threads=0 / nr=0 / decimate=1 / interlaced=0 / bluray_compat=0 / constrained_intra=0 / bframes=8 / b_pyramid=2 / b_adapt=2 / b_bias=0 / direct=3 / weightb=1 / open_gop=0 / weightp=2 / keyint=250 / keyint_min=23 / scenecut=40 / intra_refresh=0 / rc_lookahead=40 / rc=crf / mbtree=0 / crf=19.0 / qcomp=0.60 / qpmin=0 / qpmax=69 / qpstep=4 / vbv_maxrate=40000 / vbv_bufsize=30000 / crf_max=0.0 / nal_hrd=none / ip_ratio=1.40 / pb_ratio=1.30 / aq=1:1.00 / zones=182811,186564,q=30
Language : Russian
Color primaries : BT.709-5, BT.1361, IEC 61966-2-4, SMPTE RP177
Transfer characteristics : BT.709-5, BT.1361
Matrix coefficients : BT.709-5, BT.1361, IEC 61966-2-4 709, SMPTE RP177
Audio
ID : 2
Format : DTS
Format/Info : Digital Theater Systems
Codec ID : A_DTS
Duration : 2h 4mn
Bit rate mode : Constant
Bit rate : 1 510 Kbps
Channel(s) : 6 channels
Channel positions : Front: L C R, Side: L R, LFE
Sampling rate : 48.0 KHz
Bit depth : 24 bits
Compression mode : Lossy
Stream size : 1.31 GiB (16%)
Title : Original [DTS 5.1@1536kbps/24-bit]
Language : Russian
Text
ID : 3
Format : UTF-8
Codec ID : S_TEXT/UTF8
Codec ID/Info : UTF-8 Plain Text
Title : Full
Language : English
Menu
00:00:00.000 : en:Chapter 1
00:06:34.200 : en:Chapter 2
00:14:23.520 : en:Chapter 3
00:20:23.840 : en:Chapter 4
00:26:18.000 : en:Chapter 5
00:34:27.000 : en:Chapter 6
00:40:54.720 : en:Chapter 7
00:47:09.880 : en:Chapter 8
00:54:12.520 : en:Chapter 9
01:00:14.720 : en:Chapter 10
01:07:47.680 : en:Chapter 11
01:13:21.760 : en:Chapter 12
01:21:00.480 : en:Chapter 13
01:26:33.160 : en:Chapter 14
01:33:41.840 : en:Chapter 15
01:40:02.000 : en:Chapter 16
01:45:57.440 : en:Chapter 17
01:53:06.320 : en:Chapter 18

x264.log

---[NoImage] LoadPlugin("E:\Rip\DGIndex\DGDecodeNV.dll")---[NoImage] DGMultiSource("E:\Letom\Letom.dgi")---[NoImage] cropyuv(last, 0, 21, -0, -21)
---[NoImage] raw [info]: 1920x1038p 1:1 @ 25/1 fps (cfr)---[NoImage] x264 [info]: using SAR=1/1---[NoImage] x264 [info]: using cpu capabilities: MMX2 SSE2Fast SSSE3 FastShuffle SSE4.2 AVX---[NoImage] x264 [info]: profile High, level 4.1---[NoImage]---[NoImage] x264 [info]: frame I:941 Avg QP:15.69 size:168929---[NoImage] x264 [info]: frame P:37965 Avg QP:17.06 size: 76386---[NoImage] x264 [info]: frame B:147659 Avg QP:19.23 size: 29528---[NoImage] x264 [info]: consecutive B-frames: 1.9% 1.7% 7.4% 7.8% 8.9% 67.8% 3.6% 0.4% 0.4%---[NoImage] x264 [info]: mb I I16..4: 11.7% 76.8% 11.5%---[NoImage] x264 [info]: mb P I16..4: 2.7% 16.0% 1.3% P16..4: 28.9% 30.8% 8.2% 0.0% 0.0% skip:12.2%---[NoImage] x264 [info]: mb B I16..4: 0.6% 1.6% 0.1% B16..8: 37.4% 18.8% 2.4% direct: 5.8% skip:33.3% L0:45.8% L1:44.4% BI: 9.7%---[NoImage] x264 [info]: 8x8 transform intra:76.0% inter:64.8%---[NoImage] x264 [info]: direct mvs spatial:99.9% temporal:0.1%---[NoImage] x264 [info]: coded y,uvDC,uvAC intra: 75.8% 81.1% 59.0% inter: 23.4% 28.4% 4.5%---[NoImage] x264 [info]: i16 v,h,dc,p: 53% 13% 7% 28%---[NoImage] x264 [info]: i8 v,h,dc,ddl,ddr,vr,hd,vl,hu: 6% 10% 11% 9% 13% 12% 13% 11% 14%---[NoImage] x264 [info]: i4 v,h,dc,ddl,ddr,vr,hd,vl,hu: 8% 14% 26% 6% 10% 8% 10% 7% 11%---[NoImage] x264 [info]: i8c dc,h,v,p: 40% 29% 18% 13%---[NoImage] x264 [info]: Weighted P-Frames: Y:2.6% UV:1.1%---[NoImage] x264 [info]: ref P L0: 50.7% 9.3% 26.4% 12.5% 1.1% 0.0%---[NoImage] x264 [info]: ref B L0: 85.1% 11.5% 3.4%---[NoImage] x264 [info]: ref B L1: 93.1% 6.9%---[NoImage] x264 [info]: kb/s:7953.26---[NoImage] encoded 186565 frames, 4.52 fps, 7953.26 kb/s
[Профиль] [ЛС]
Кто просматривает тему:

Форум Тема Автор Размер
Зарубежные сериалы Как я встретил вашу маму / How I Met Your Mother [S01-09] (2005-2014) HDTVRip, WEB-DLRip, DVDRip | Кураж-Бамбей Russian Mafia 39.21 GB
Зарубежные сериалы Как я встретил вашу маму / How I Met Your Mother [S02] (2006-2007) WEB-DL 720p | Кураж-Бамбей, Paramount Comedy, MTV Russian Mafia 17.49 GB
Отечественные мультфильмы Как я ездил к деве Севера / Kā es braucu Ziemeļmeitas lūkoties (Розе Стиебра / Rоze Stiebrа) [1980, мультфильм для взрослых, экранизация, DVDRip] DVO TorrentFilm 159 MB
Отечественные мультфильмы Как я похудел на 21 грамм (Павел Сухих, Константин Комардин) [2013, мультфильм для взрослых, WEBRip-AVC 720p] TorrentFilm 366 MB
Фильмы (HD Rips | 720p, 1080p) Как я провёл этим летом (Алексей Попогребский) [2010, Россия, триллер, BDRip 720p] TorrentFilm 4.78 GB
Фильмы (HD Rips | 720p, 1080p) Как я провёл этим летом (Алексей Попогребский) [2010, Россия, триллер, Blu-ray disc 1080i] Sub Eng TorrentFilm 29.48 GB
Отечественные cериалы Как я стал русским (Сезон 1 , Серии 1-20 из 20) (Константин Статский) [2015 , Комедия , WEB-DLRip 1080p] Враг Нароода 18.9 GB
Отечественные cериалы Как я стал русским [01x01-20 из 20] (2015) DVB BOSS 12.32 GB
Показать сообщения:    

Текущее время: Сегодня 20:12

Часовой пояс: GMT



Вы не можете начинать темы
Вы не можете отвечать на сообщения
Вы не можете редактировать свои сообщения
Вы не можете удалять свои сообщения
Вы не можете голосовать в опросах
Вы не можете прикреплять файлы к сообщениям
Вы не можете скачивать файлы