Как я встретил вашу маму / How I Met Your Mother [S02] (2006-2007) WEB-DL 720p | Кураж-Бамбей, Paramount Comedy, MTV

 
Автор Сообщение

Russian Mafia ®

Пол:

Стаж: 1 год 8 месяцев

Сообщений: 4257



Награды: 10 (Подробнее)

Top Releaser 5 (Количество: 1) Top Releaser 4 (Количество: 1) Top Releaser 2 (Количество: 1)
Торрент-статистика

Создавать темы 23-Окт-2015 17:44

[Цитировать]

Информация о сериале
Название: Как я встретил вашу маму
Оригинальное название: How I Met Your Mother
Годы выхода: 2006-2007
Жанр: комедия, мелодрама
Авторы идеи: Картер Бэйс /Carter Bays/, Крейг Томас /Craig Thomas/
Режиссеры: Памела Фрайман /Pamela Fryman/, Роб Гринберг /Rob Greenberg/, Майкл Дж. Ши /Michael J. Shea/ и др.
В ролях: Джош Рэднор /Josh Radnor/, Нил Патрик Харрис /Neil Patrick Harris/, Коби Смолдерс /Cobie Smulders/, Джейсон Сигел /Jason Segel/, Элисон Хэннигэн /Alyson Hannigan/, Боб Сагет /Bob Saget/, Линдси Фонсека /Lyndsy Fonseca/, Дэвид Генри /David Henrie/, Джо Ниевес /Joe Nieves/ и др.
О сериале:
«Как я встретил вашу маму» — комедия про Теда и про то, как он влюбился. Все неприятности начинаются с того, что лучший друг Теда, Маршалл, вдруг неожиданно сообщил, что он хочет сделать предложение своей давней подруге, Лили, воспитательнице детского сада. К тому времени Тед понимает, что ему нужно прилагать больше усилий, если он действительно надеется найти свою настоящую любовь. Помогает ему в этих поисках его друг Барни, убежденный холостяк, вечно со своим, иногда чересчур, мнением на все происходящее, со склонностью к костюмам и верным способом познакомиться с девушками. Когда Тед встречает Робин, он решает, что это любовь с первого взгляда, но у судьбы в запасе есть кое-что еще.

Страна: США
Студии: 20th Century Fox Television / Bays Thomas Productions
Продолжительность: 22 x ~ 00:22:00
Перевод:
Профессиональный (одноголосый, закадровый) - Кураж-Бамбей
Профессиональный (двухголосый, закадровый) - Кураж-Бамбей по заказу Paramount Comedy
Профессиональный (многоголосый, закадровый) - Кравец по заказу MTV
Файл
Кодек: H.264
Качество: WEB-DL 720p
Видео: 1280x720 at 23.976 fps, MPEG-4 AVC, ~4000 kbps avg
Аудио#1: Russian: 48 kHz, AC3, 2/0 (L,R) ch, ~192.00 kbps avg |Одноголосый закадровый, Кураж-Бамбей|
Аудио#2: Russian: 48 kHz, AC3, 3/2 (L,C,R,l,r) + LFE ch, ~384.00 kbps avg |Двухголосый закадровый, Paramount Comedy|
Аудио#3: Russian: 48 kHz, AC3, 2/0 (L,R) ch, ~192.00 kbps avg |Многоголосый закадровый, MTV|
Аудио#4: English: 48 kHz, AC3, 3/2 (L,C,R,l,r) + LFE ch, ~384.00 kbps avg |Оригинал|
Субтитры: Russian (Full - Vers), English (SDH)

Скриншоты


MediaInfo

General
Complete name : HIMYM.S02E01.720p.WEB-DL.3xRus.Eng.mkv
Format : Matroska
Format version : Version 4 / Version 2
File size : 793 MiB
Duration : 21mn 21s
Overall bit rate : 5 191 Kbps
Movie name : How I Met Your Mother - Season 2 Episode 1 - Where Were We? / На чём мы остановились?
Encoded date : UTC 2014-11-17 16:44:07
Writing application : mkvmerge v7.0.0 ('Where We Going') 32bit built on Jun 9 2014 15:08:34
Writing library : libebml v1.3.0 + libmatroska v1.4.1
DURATION : 00:20:49.929000000
NUMBER_OF_FRAMES : 424
NUMBER_OF_BYTES : 31185
_STATISTICS_WRITING_APP : mkvmerge v7.0.0 ('Where We Going') 32bit built on Jun 9 2014 15:08:34
_STATISTICS_WRITING_DATE_UTC : 2014-11-17 16:44:07
_STATISTICS_TAGS : BPS DURATION NUMBER_OF_FRAMES NUMBER_OF_BYTES
Video
ID : 1
Format : AVC
Format/Info : Advanced Video Codec
Format profile : High@L3.1
Format settings, CABAC : No
Format settings, ReFrames : 2 frames
Codec ID : V_MPEG4/ISO/AVC
Duration : 21mn 21s
Bit rate : 3 936 Kbps
Width : 1 280 pixels
Height : 720 pixels
Display aspect ratio : 16:9
Frame rate mode : Constant
Frame rate : 23.976 fps
Color space : YUV
Chroma subsampling : 4:2:0
Bit depth : 8 bits
Scan type : Progressive
Bits/(Pixel*Frame) : 0.178
Stream size : 601 MiB (76%)
Title : HIMYM - S02E01 - Where Were We?
Language : English
Default : Yes
Forced : No
Color range : Limited
Color primaries : BT.709
Transfer characteristics : BT.709
Matrix coefficients : BT.709
Audio #1
ID : 2
Format : AC-3
Format/Info : Audio Coding 3
Mode extension : CM (complete main)
Format settings, Endianness : Big
Codec ID : A_AC3
Duration : 21mn 21s
Bit rate mode : Constant
Bit rate : 192 Kbps
Channel(s) : 2 channels
Channel positions : Front: L R
Sampling rate : 48.0 KHz
Compression mode : Lossy
Stream size : 29.3 MiB (4%)
Title : VO Кураж-Бамбей
Language : Russian
Default : Yes
Forced : No
Audio #2
ID : 3
Format : AC-3
Format/Info : Audio Coding 3
Mode extension : CM (complete main)
Format settings, Endianness : Big
Codec ID : A_AC3
Duration : 21mn 21s
Bit rate mode : Constant
Bit rate : 384 Kbps
Channel(s) : 6 channels
Channel positions : Front: L C R, Side: L R, LFE
Sampling rate : 48.0 KHz
Compression mode : Lossy
Stream size : 58.6 MiB (7%)
Title : DVO Paramount Comedy / Кураж-Бамбей 2014
Language : Russian
Default : No
Forced : No
Audio #3
ID : 4
Format : AC-3
Format/Info : Audio Coding 3
Mode extension : CM (complete main)
Format settings, Endianness : Big
Codec ID : A_AC3
Duration : 21mn 21s
Bit rate mode : Constant
Bit rate : 192 Kbps
Channel(s) : 2 channels
Channel positions : Front: L R
Sampling rate : 48.0 KHz
Compression mode : Lossy
Stream size : 29.3 MiB (4%)
Title : MVO MTV / Кравец
Language : Russian
Default : No
Forced : No
Audio #4
ID : 5
Format : AC-3
Format/Info : Audio Coding 3
Mode extension : CM (complete main)
Format settings, Endianness : Big
Codec ID : A_AC3
Duration : 21mn 21s
Bit rate mode : Constant
Bit rate : 384 Kbps
Channel(s) : 6 channels
Channel positions : Front: L C R, Side: L R, LFE
Sampling rate : 48.0 KHz
Compression mode : Lossy
Stream size : 58.6 MiB (7%)
Title : Original
Language : English
Default : No
Forced : No
Text #1
ID : 6
Format : UTF-8
Codec ID : S_TEXT/UTF8
Codec ID/Info : UTF-8 Plain Text
Title : Vers
Language : Russian
Default : No
Forced : No
Text #2
ID : 7
Format : UTF-8
Codec ID : S_TEXT/UTF8
Codec ID/Info : UTF-8 Plain Text
Title : Original
Language : English
Default : No
Forced : No

Список серий

01. Where Were We? / На чём мы остановились?
02. The Scorpion and the Toad / Скорпион и жаба
03. Brunch / Завтрак
04. Ted Mosby, Architect / Тед Мосби: Архитектор
05. World's Greatest Couple / Самая лучшая в мире пара
06. Aldrin Justice / Правосудие Олдрин
07. Swarley / Сварли
08. Atlantic City / Атлантик-сити
09. Slap Bet / Спор на пощёчины
10. Single Stamina / Жизненная сила холостяка
11. How Lily Stole Christmas / Как Лили украла Рождество
12. First Time in New York / Первый раз в Нью-Йорке
13. Columns / Колонны
14. Monday Night Football / Футбол в понедельник вечером
15. Lucky Penny / Счастливый пенни
16. Stuff / Вещи
17. Arrivederci, Fiero / Аривидерчи, Фиеро
18. Moving Day / День переезда
19. Bachelor Party / Мальчишник
20. Showdown / Поединок
21. Something Borrowed / Кое-что позаимствованное
22. Something Blue / Кое-что синее
[Профиль] [ЛС]
Кто просматривает тему:

Форум Тема Автор Размер
Зарубежные сериалы Как я встретил вашу маму / How I Met Your Mother [S01-09] (2005-2014) HDTVRip, WEB-DLRip, DVDRip | Кураж-Бамбей Russian Mafia 39.21 GB
Отечественные мультфильмы Как я ездил к деве Севера / Kā es braucu Ziemeļmeitas lūkoties (Розе Стиебра / Rоze Stiebrа) [1980, мультфильм для взрослых, экранизация, DVDRip] DVO TorrentFilm 159 MB
Отечественные мультфильмы Как я похудел на 21 грамм (Павел Сухих, Константин Комардин) [2013, мультфильм для взрослых, WEBRip-AVC 720p] TorrentFilm 366 MB
Фильмы (HD Rips | 720p, 1080p) Как я провёл этим летом (Алексей Попогребский) [2010, Россия, триллер, BDRip 1080p] TorrentFilm 8.23 GB
Фильмы (HD Rips | 720p, 1080p) Как я провёл этим летом (Алексей Попогребский) [2010, Россия, триллер, BDRip 720p] TorrentFilm 4.78 GB
Фильмы (HD Rips | 720p, 1080p) Как я провёл этим летом (Алексей Попогребский) [2010, Россия, триллер, Blu-ray disc 1080i] Sub Eng TorrentFilm 29.48 GB
Отечественные cериалы Как я стал русским (Сезон 1 , Серии 1-20 из 20) (Константин Статский) [2015 , Комедия , WEB-DLRip 1080p] Враг Нароода 18.9 GB
Отечественные cериалы Как я стал русским [01x01-20 из 20] (2015) DVB BOSS 12.32 GB
Показать сообщения:    

Текущее время: Сегодня 04:27

Часовой пояс: GMT



Вы не можете начинать темы
Вы не можете отвечать на сообщения
Вы не можете редактировать свои сообщения
Вы не можете удалять свои сообщения
Вы не можете голосовать в опросах
Вы не можете прикреплять файлы к сообщениям
Вы не можете скачивать файлы