Как щенок учился плавать (Владимир Данилевич) [1984, Кукольный мультфильм, DVDRip]

 
Автор Сообщение

painkiller ®

Стаж: 2 года 3 месяца

Сообщений: 582



Награды: Нет

Торрент-статистика

Создавать темы 27-Авг-2014 15:34

[Цитировать]

Как щенок учился плавать
Страна: CCCР
Жанр: Кукольный мультфильм
Продолжительность: 00:06:56
Год выпуска: 1984
Русские субтитры: нет
Режиссёр: Владимир Данилевич
Роли озвучивали: О.Громова,М.Виноградова,Е.Весник,Г.Вицин
Описание: Мультипликационный фильм о «маленьком глупом щенке, который не умеет плавать и не решается войти в воду. Щука и рак учат его плавать при помощи плавников и хвоста, лебедь — с помощью перепончатых лап. Когда же щенок, наконец, поплыл, то это был его собственный индивидуальный стиль по-собачьи»
Доп. информация:
«Союзмультфильм»
Сценарий: Э.Шим
Художник-постановщик:А.Курицын
Оператор:В.Сидоров
Директор:И.Мазепа
Композитор:Е.Ботяров
Качество: DVDRip
Формат: AVI
Видео: 704x528 (1.33:1), 25 fps, XviD MPEG-4 ~2298 kbps avg, 0.25 bit/pixel
Аудио: 48 kHz, AC3 Dolby Digital, 2/0 (L,R) ch, ~192.00 kbps avg
Субтитры: нет

Подробные технические данные

Format : AVI
Format/Info : Audio Video Interleave
File size : 124 MiB
Duration : 6mn 56s
Overall bit rate : 2 500 Kbps
Writing application : VirtualDub
ModRus 1.5.10.2 (build 2542/release)
Copyright : .org
Comment : DVDRip by dvdss
Video
ID : 0
Format : MPEG-4 Visual
Format profile : Advanced Simple@L5
Format settings, BVOP : 2
Format settings, QPel : No
Format settings, GMC : No warppoints
Format settings, Matrix : Custom
Codec ID : XVID
Codec ID/Hint : XviD
Duration : 6mn 56s
Bit rate : 2 298 Kbps
Width : 704 pixels
Height : 528 pixels
Display aspect ratio : 5:4
Original display aspect ratio : 4:3
Frame rate : 25.000 fps
Color space : YUV
Chroma subsampling : 4:2:0
Bit depth : 8 bits
Scan type : Progressive
Compression mode : Lossy
Bits/(Pixel*Frame) : 0.247
Stream size : 114 MiB (92%)
Writing library : XviD 65
Audio
ID : 1
Format : AC-3
Format/Info : Audio Coding 3
Mode extension : CM (complete main)
Format settings, Endianness : Big
Codec ID : 2000
Duration : 6mn 56s
Bit rate mode : Constant
Bit rate : 192 Kbps
Channel(s) : 2 channels
Channel positions : Front: L R
Sampling rate : 48.0 KHz
Bit depth : 16 bits
Compression mode : Lossy
Stream size : 9.54 MiB (8%)
Alignment : Aligned on interleavesInterleave, duration : 40 ms (1.00 video frame)
Interleave, preload duration : 512 ms

Скриншоты

[Профиль] [ЛС]
Кто просматривает тему:

Показать сообщения:    

Текущее время: Сегодня 18:20

Часовой пояс: GMT



Вы не можете начинать темы
Вы не можете отвечать на сообщения
Вы не можете редактировать свои сообщения
Вы не можете удалять свои сообщения
Вы не можете голосовать в опросах
Вы не можете прикреплять файлы к сообщениям
Вы не можете скачивать файлы