Как украсть миллион / How to Steal a Million (1966) BDRip [720p]

 
Автор Сообщение

sergej644 ®

Пол:

Стаж: 4 года 11 месяцев

Сообщений: 6038

Откуда: Soviet Union



Награды: Нет

Торрент-статистика

Создавать темы 18-Окт-2014 21:39

[Цитировать]

-Как украсть миллион / How to Steal a Million (1966) BDRip- Год выпуска: 1966
Производство: США / World Wide Productions
Жанр: Комедия, Мелодрама, Криминал
Описание фильма:
Действие происходит в Париже. Молодая девушка, дочь миллионера, втайне промышляющего подделкой произведений искусства, и преступник, должны выкрасть с выставки изобразительного искусства в Лувре один из «шедевров» отца девушки, чтобы спасти его от разоблачения.
Режиссер: Уильям Уайлер
Актеры: Одри Хепбёрн, Питер О`Тул, Эли Уоллах, Хью Гриффит, Шарль Буайе, Фернан Гравей, Марсель Далио, Жак Марин, Мусташ, Роже Тревиль
Перевод: Дублированный, Многолосый закадровый (профессиональный), Одноголосый закадровый (авторский)
Язык субтитров: Русский, Английский
Вид субтитров: Вшитые отключаемые

Продолжительность: 02:03:24
Качество видео: BDRip
Видеокодек: MPEG-4 AVC
Битрейт видео: ~9304 kbps
Размер кадра: 1280x546
Аудио №1: русский / AC3 2.0, 48 kHz, 192 kbps, 16 bit |Дубляж СССР, Мосфильм|
Аудио №2: русский / DTS 5.1, 48 kHz, 1510 kbps, 24 bit |Многоголосый, Film Prestige|
Аудио №3: русский / AC3 2.0, 48 kHz, 192 kbps, 16 bit |Одноголосый, П. Карцев|
Аудио №4: английский / DTS 5.1, 48 kHz, 1510 kbps, 24 bit
Сэмпл: Ссылка

log x264:

x264 [info]: frame I:1107 Avg QP:16.05 size:170056
x264 [info]: frame P:35108 Avg QP:18.55 size: 90587
x264 [info]: frame B:141296 Avg QP:20.88 size: 37095
x264 [info]: consecutive B-frames: 0.9% 0.9% 2.7% 20.0% 23.5% 45.1% 4.7% 1.7% 0.3% 0.1% 0.1%
x264 [info]: mb I I16..4: 1.7% 76.9% 21.5%
x264 [info]: mb P I16..4: 0.1% 27.4% 1.9% P16..4: 17.3% 26.8% 21.4% 4.5% 0.3% skip: 0.3%
x264 [info]: mb B I16..4: 0.0% 4.1% 0.2% B16..8: 32.4% 24.7% 10.9% direct:14.2% skip:13.5% L0:42.8% L1:41.5% BI:15.7%
x264 [info]: 8x8 transform intra:92.6% inter:47.3%
x264 [info]: direct mvs spatial:98.5% temporal:1.5%
x264 [info]: coded y,uvDC,uvAC intra: 97.3% 77.0% 44.0% inter: 53.5% 27.5% 6.9%
x264 [info]: i16 v,h,dc,p: 23% 35% 15% 27%
x264 [info]: i8 v,h,dc,ddl,ddr,vr,hd,vl,hu: 13% 7% 17% 9% 11% 12% 10% 11% 10%
x264 [info]: i4 v,h,dc,ddl,ddr,vr,hd,vl,hu: 37% 6% 6% 8% 9% 10% 8% 8% 8%
x264 [info]: i8c dc,h,v,p: 33% 30% 23% 15%
x264 [info]: Weighted P-Frames: Y:9.3% UV:2.6%
x264 [info]: ref P L0: 40.7% 9.9% 20.2% 8.5% 6.8% 4.3% 4.3% 2.4% 2.7% 0.3% 0.0%
x264 [info]: ref B L0: 81.0% 9.4% 4.5% 2.1% 1.2% 1.0% 0.5% 0.3%
x264 [info]: ref B L1: 95.9% 4.1%
x264 [info]: kb/s:9303.46

MediaInfo

Format : Matroska
Format version : Version 4 / Version 2
File size : 11.0 GiB
Duration : 2h 3mn
Overall bit rate : 12.7 Mbps
Movie name : Kak.ukrast.million.1966.x264.BDRip.720p - Vikosol
Encoded date : UTC 2014-05-27 13:37:15
Writing application : mkvmerge v6.8.0 ('Theme for Great Cities') 64bit built on Mar 2 2014 21:34:26
Writing library : libebml v1.3.0 + libmatroska v1.4.1
Video
ID : 1
Format : AVC
Format/Info : Advanced Video Codec
Format profile : [url=mailto:High@L4.1]High@L4.1[/url]
Format settings, CABAC : Yes
Format settings, ReFrames : 9 frames
Codec ID : V_MPEG4/ISO/AVC
Duration : 2h 3mn
Bit rate : 9 304 Kbps
Width : 1 280 pixels
Height : 546 pixels
Display aspect ratio : 2.35:1
Frame rate : 23.976 fps
Color space : YUV
Chroma subsampling : 4:2:0
Bit depth : 8 bits
Scan type : Progressive
Bits/(Pixel*Frame) : 0.555
Stream size : 7.80 GiB (71%)
Writing library : x264 core 142 r2409+42 04be48a tMod [8-bit@all X86_64]
Encoding settings : cabac=1 / ref=9 / deblock=1:-3:-3 / analyse=0x3:0x133 / me=umh / subme=11 / psy=1 / fade_compensate=0.00 / psy_rd=1.00:0.00 / mixed_ref=1 / me_range=48 / chroma_me=1 / trellis=2 / 8x8dct=1 / cqm=0 / deadzone=21,11 / fast_pskip=0 / chroma_qp_offset=-2 / threads=6 / lookahead_threads=1 / sliced_threads=0 / nr=0 / decimate=0 / interlaced=0 / bluray_compat=0 / constrained_intra=0 / fgo=0 / bframes=10 / b_pyramid=2 / b_adapt=2 / b_bias=0 / direct=3 / weightb=1 / open_gop=0 / weightp=2 / keyint=240 / keyint_min=23 / scenecut=40 / intra_refresh=0 / rc=2pass / mbtree=0 / bitrate=9304 / ratetol=1.0 / qcomp=0.65 / qpmin=0:0:0 / qpmax=69:69:69 / qpstep=4 / cplxblur=20.0 / qblur=0.5 / ip_ratio=1.40 / pb_ratio=1.30 / aq=3:0.80 / aq-sensitivity=10.00 / aq-factor=1.00:1.00:1.00 / aq2=0 / aq3=0
Language : English
Color primaries : BT.709
Transfer characteristics : BT.709
Matrix coefficients : BT.709
Audio #1
ID : 2
Format : AC-3
Format/Info : Audio Coding 3
Mode extension : CM (complete main)
Codec ID : A_AC3
Duration : 2h 3mn
Bit rate mode : Constant
Bit rate : 192 Kbps
Channel(s) : 2 channels
Channel positions : Front: L R
Sampling rate : 48.0 KHz
Bit depth : 16 bits
Compression mode : Lossy
Stream size : 169 MiB (2%)
Title : Дубляж СССР, Мосфильм
Language : Russian
Audio #2
ID : 3
Format : DTS
Format/Info : Digital Theater Systems
Codec ID : A_DTS
Duration : 2h 3mn
Bit rate mode : Constant
Bit rate : 1 510 Kbps
Channel(s) : 6 channels
Channel positions : Front: L C R, Side: L R, LFE
Sampling rate : 48.0 KHz
Bit depth : 24 bits
Compression mode : Lossy
Stream size : 1.30 GiB (12%)
Title : Многоголосый, Film Prestige
Language : Russian
Audio #3
ID : 4
Format : AC-3
Format/Info : Audio Coding 3
Mode extension : CM (complete main)
Codec ID : A_AC3
Duration : 2h 3mn
Bit rate mode : Constant
Bit rate : 192 Kbps
Channel(s) : 2 channels
Channel positions : Front: L R
Sampling rate : 48.0 KHz
Bit depth : 16 bits
Compression mode : Lossy
Stream size : 169 MiB (2%)
Title : Авторский, П.Карцев
Language : Russian
Audio #4
ID : 5
Format : DTS
Format/Info : Digital Theater Systems
Codec ID : A_DTS
Duration : 2h 3mn
Bit rate mode : Constant
Bit rate : 1 510 Kbps
Channel(s) : 6 channels
Channel positions : Front: L C R, Side: L R, LFE
Sampling rate : 48.0 KHz
Bit depth : 24 bits
Compression mode : Lossy
Stream size : 1.30 GiB (12%)
Language : English
Text #1
ID : 6
Format : UTF-8
Codec ID : S_TEXT/UTF8
Codec ID/Info : UTF-8 Plain Text
Language : Russian
Text #2
ID : 7
Format : UTF-8
Codec ID : S_TEXT/UTF8
Codec ID/Info : UTF-8 Plain Text
Language : English
Menu
00:00:00.000 : en:Chapter 01
00:10:49.357 : en:Chapter 02
00:17:44.313 : en:Chapter 03
00:31:28.928 : en:Chapter 04
00:44:21.367 : en:Chapter 05
00:58:21.414 : en:Chapter 06
01:06:12.134 : en:Chapter 07
01:16:46.935 : en:Chapter 08
01:28:30.888 : en:Chapter 09
01:45:46.715 : en:Chapter 10
02:03:22.937 : en:Chapter 11

Знаете ли Вы, что...

Фильм был номинирован на премию Гильдии сценаристов США за лучший комедийный сценарий.
Во время показа в СССР картины все киноафиши города Караганды Казахской ССР были разрисованы - к названию фильма «Как украсть миллион» добавили «Спросите в ЦК КПСС». Это было связано с расследованием дела Меховой мафии СССР.
В споре на чердаке отец Николь говорит: «Ван Гог за всю жизнь продал только одну картину». Это действительно так, зато сейчас полотна Ван Гога одни из самых дорогих в мире.
Туалеты Одри Хепберн, специально для фильма, создал Юбер де Живанши.
В момент ограбления Николь читает биографию Хичкока.
Рабочее название фильма было «Как украсть миллион и жить долго и счастливо».
Драгоценности Одри Хепберн предоставил торговый-ювелирный дом Cartier.
На роль эксцентричного миллионера Лиланда сначала планировался Уолтер Мэттау, но гонорар, который он запросил, не устроил продюсеров. Следующим в списке был Джордж К. Скотт, но в первый съёмочный день актёр явился с опозданием и был уволен режиссёром. В итоге, роль перешла к Эли Уоллаху.
Съёмки фильма начались со сцен, когда герои Хепберн и О’Тула прячутся в музейном чулане, чтобы затем выкрасть «Венеру». На съёмки этих эпизодов потребовалось 11 дней. Один из биографов Хепберн утверждает, что исполнители главных ролей без конца хихикали на площадке и портили дубль за дублем.
Натурой для музея Клебер-Лафайет послужил художественный музей Карнавале (Carnavalet), расположенный в 3 округе Парижа в районе Маре. Залы музея Клебер-Лафайет были построены в съёмочном павильоне в пригороде Парижа Булонь Бийанкур. За $100 тыс. художник-постановщик Александр Траунер собрал коллекцию поддельных полотен великих художников, а ещё за $50 тыс. приобрел для них аутентичные старинные рамы.
еще 7 фактов
В действительности золотых дел мастер Бенвенуто Челлини никогда не работал с мрамором.
Скриншоты:
Время раздачи: 24/7
[Профиль] [ЛС]
Кто просматривает тему:

Показать сообщения:    

Текущее время: Сегодня 08:28

Часовой пояс: GMT



Вы не можете начинать темы
Вы не можете отвечать на сообщения
Вы не можете редактировать свои сообщения
Вы не можете удалять свои сообщения
Вы не можете голосовать в опросах
Вы не можете прикреплять файлы к сообщениям
Вы не можете скачивать файлы