Как украсть бриллиант / Love Punch (2013) BDRip [720p] [VO]

 
Автор Сообщение

sergej644 ®

Пол:

Стаж: 4 года 11 месяцев

Сообщений: 6041

Откуда: Soviet Union



Награды: Нет

Торрент-статистика

Создавать темы 24-Авг-2014 08:48

[Цитировать]

-Как украсть бриллиант / Love Punch (2013) BDRip- Год выпуска: 2013
Производство: Франция - Process Media, Love Punch, Radar Films, SND
Жанр: Комедия
Режиссер: Джоэл Хопкинс
Актеры: Пирс Броснан, Эмма Томпсон, Тимоти Сполл, Селия Имри, Таппенс Мидлтон, Луиз Бургуан, Мариса Беренсон, Сабина Кроссен, Элинор Матсуура, Патрис Колс
Описание фильма:
Разведенная пара решает вернуть себе пенсионные деньги, которые у них украли.
Перевод: Одноголосый закадровый, любительский |Lord32x|

Дата мировой премьеры: 12 сентября 2013
Дата российской премьеры: 9 октября 2014, «Арена»
Продолжительность: 01:34:15
Качество видео: BDRip 720p [profile-LQ]
Видеокодек: MPEG-4 AVC/H.264
Видео: 4968 Кбит/с, 1280x534, 23.976 кадр/с
Аудио #1: Русский: AC3 5.1, 384 Кбит/с, 48kHz, 16 bit
Аудио #2: Английский: DTS 5.1, 1536 Кбит/с, 48 kHz, 24 bit
Сохранены оригинальные чаптеры как на Blu-Ray

MediaInfo:

Общее
Уникальный идентификатор : 234228825586084209356674263819641498117 (0xB036D4B617516AF3B0C86292CA512A05)
Полное имя : D:\Video\The.Love.Punch.2013.L1.BDRip.720p.mkv
Формат : Matroska
Версия формата : Version 4 / Version 2
Размер файла : 4,61 Гбайт
Продолжительность : 1 ч. 34 м.
Общий поток : 7001 Кбит/сек
Дата кодирования : UTC 2014-08-23 21:21:13
Программа кодирования : mkvmerge v6.1.0 ('Old Devil') built on Mar 4 2013 09:10:42
Библиотека кодирования : libebml v1.3.0 + libmatroska v1.4.0
Видео
Идентификатор : 1
Формат : AVC
Формат/Информация : Advanced Video Codec
Профиль формата : [url=mailto:High@L4.1]High@L4.1[/url]
Параметр CABAC формата : Да
Параметр ReFrames формата : 11 кадров
Идентификатор кодека : V_MPEG4/ISO/AVC
Продолжительность : 1 ч. 34 м.
Битрейт : 4968 Кбит/сек
Ширина : 1280 пикселей
Высота : 534 пикселя
Соотношение сторон : 2,40:1
Частота кадров : 23,976 кадра/сек
Цветовое пространство : YUV
Субдискретизация насыщенности : 4:2:0
Битовая глубина : 8 бит
Тип развёртки : Прогрессивная
Бит/(Пиксели*Кадры) : 0.303
Размер потока : 3,27 Гбайт (71%)
Язык : English
Default : Да
Forced : Нет
Аудио #1
Идентификатор : 2
Формат : AC-3
Формат/Информация : Audio Coding 3
Расширение режима : CM (complete main)
Идентификатор кодека : A_AC3
Продолжительность : 1 ч. 34 м.
Вид битрейта : Постоянный
Битрейт : 384 Кбит/сек
Каналы : 6 каналов
Расположение каналов : Front: L C R, Side: L R, LFE
Частота : 48,0 КГц
Битовая глубина : 16 бит
Метод сжатия : С потерями
Размер потока : 259 Мбайт (5%)
Язык : Russian
Default : Да
Forced : Нет
Аудио #2
Идентификатор : 3
Формат : DTS
Формат/Информация : Digital Theater Systems
Идентификатор кодека : A_DTS
Продолжительность : 1 ч. 34 м.
Вид битрейта : Постоянный
Битрейт : 1510 Кбит/сек
Каналы : 6 каналов
Расположение каналов : Front: L C R, Side: L R, LFE
Частота : 48,0 КГц
Битовая глубина : 24 бит
Метод сжатия : С потерями
Задержка видео : 9 мс.
Размер потока : 1018 Мбайт (22%)
Язык : English
Default : Нет
Forced : Нет
Меню
00:00:00.000 : en:00:00:17.017
00:05:52.769 : en:00:06:10.787
00:11:36.446 : en:00:11:54.464
00:17:13.407 : en:00:17:31.425
00:22:16.085 : en:00:22:34.103
00:28:00.304 : en:00:28:18.322
00:33:38.266 : en:00:33:56.284
00:41:22.897 : en:00:41:40.915
00:46:26.909 : en:00:46:44.927
00:52:20.721 : en:00:52:38.739
00:56:53.785 : en:00:57:11.803
01:04:24.444 : en:01:04:42.462
01:10:07.245 : en:01:10:25.263
01:17:09.208 : en:01:17:27.226
01:23:01.018 : en:01:23:19.036
01:28:05.363 : en:01:28:23.381
Скриншоты: Время раздачи: с 10:00 до 20:00 (GMT+2) - до 10 скачавшихНе забываем говорить
[Профиль] [ЛС]
Кто просматривает тему:

Показать сообщения:    

Текущее время: Сегодня 18:53

Часовой пояс: GMT



Вы не можете начинать темы
Вы не можете отвечать на сообщения
Вы не можете редактировать свои сообщения
Вы не можете удалять свои сообщения
Вы не можете голосовать в опросах
Вы не можете прикреплять файлы к сообщениям
Вы не можете скачивать файлы