Как Убивали Югославию. Тень Дейтона (Алексей Денисов) [2015, Документальный, HDTV 720p]

 
Автор Сообщение

TorrentFilm ®

Пол:

Стаж: 2 года

Сообщений: 7741



Награды: Нет

Торрент-статистика

Создавать темы 01-Май-2015 00:04

[Цитировать]

Как Убивали Югославию. Тень Дейтона- Год выпуска: 2015
Страна: Россия
Студия: Россия HD
Жанр: Документальный
Продолжительность: 0:44:02
Режиссер: Алексей Денисов-Описание: 21 ноября 1995 года мировые информационные агентства передали срочную новость из Соединенных Штатов Америки. На военной базе в Дейтоне президентами Сербии, Хорватии и лидером боснийских мусульман было подписано соглашение о прекращении гражданской войны в Боснии и Герцеговине. В соответствии с ним эта часть бывшей Югославии отныне разделялась на мусульмано-хорватскую федерацию и Республику Сербскую.
Для контроля за границами и поддержки перемирия туда вводятся международные силы под командованием НАТО – всего 60 тысяч человек, половину из которых составляют американцы. Сербы, которые к этому моменту контролировали почти 75% территории Боснии и Герцеговины, пошли на серьезные уступки и согласились оставить себе только 49% территории. Это было сделано ради прекращения гражданской войны, которая к этому времени фактически уничтожила бывшую Югославию.-Автор рипа: lrn
Автор записи: GeneralFilm
Сэмпл: sendfile-Тип релиза: HDTV 720p
Контейнер: MKV
Видео: 1280x720 (16:9), 25,000 fps, H264, ~4000 kbps avg, ~0.174 bit/pixel
Аудио: 48 kHz, AC3 Dolby Digital, 2/0 (L,R) ch, ~192.00 kbps avg-

MediaInfo

GeneralUnique ID : 222064769445360659166994908196799567558 (0xA7101E70AD844B31BD17E3AA6714D6C6)Complete name : E:\uTorrent.Temp\Temp\Kak.Ubivali.Jugoslaviju.Ten.Deytona.2015.HDTV.720p.x264-lrn.mkvFormat : MatroskaFormat version : Version 4 / Version 2File size : 1.29 GiBDuration : 44mn 2sOverall bit rate : 4 190 KbpsMovie name : Kak.Ubivali.Jugoslaviju.Ten.Deytona.2015.HDTV.720p.x264-lrnEncoded date : UTC 2010-02-22 21:41:31Writing application : mkvmerge v5.9.0 ('On The Loose') built on Dec 9 2012 15:37:01Writing library : libebml v1.3.0 + libmatroska v1.4.0
VideoID : 1Format : AVCFormat/Info : Advanced Video CodecFormat profile : High@L4.1Format settings, CABAC : YesFormat settings, ReFrames : 8 framesCodec ID : V_MPEG4/ISO/AVCDuration : 44mn 2sBit rate : 4 000 KbpsWidth : 1 280 pixelsHeight : 720 pixelsDisplay aspect ratio : 16:9Frame rate mode : ConstantFrame rate : 25.000 fpsColor space : YUVChroma subsampling : 4:2:0Bit depth : 8 bitsScan type : ProgressiveBits/(Pixel*Frame) : 0.174Stream size : 1.20 GiB (93%)Writing library : x264 core 142 r2479 dd79a61Encoding settings : cabac=1 / ref=8 / deblock=1:-3:-3 / analyse=0x3:0x113 / me=umh / subme=9 / psy=1 / psy_rd=1.00:0.00 / mixed_ref=1 / me_range=32 / chroma_me=1 / trellis=2 / 8x8dct=1 / cqm=0 / deadzone=21,11 / fast_pskip=1 / chroma_qp_offset=-4 / threads=12 / lookahead_threads=2 / sliced_threads=0 / nr=0 / decimate=1 / interlaced=0 / bluray_compat=0 / constrained_intra=0 / bframes=8 / b_pyramid=2 / b_adapt=2 / b_bias=0 / direct=1 / weightb=1 / open_gop=0 / weightp=2 / keyint=250 / keyint_min=25 / scenecut=40 / intra_refresh=0 / rc_lookahead=50 / rc=2pass / mbtree=1 / bitrate=4000 / ratetol=1.0 / qcomp=0.60 / qpmin=0 / qpmax=69 / qpstep=4 / cplxblur=20.0 / qblur=0.5 / vbv_maxrate=62500 / vbv_bufsize=78125 / nal_hrd=none / filler=0 / ip_ratio=1.40 / aq=1:1.00Default : YesForced : NoColor range : LimitedColor primaries : BT.709Transfer characteristics : BT.709Matrix coefficients : BT.709
AudioID : 2Format : AC-3Format/Info : Audio Coding 3Mode extension : CM (complete main)Format settings, Endianness : BigCodec ID : A_AC3Duration : 44mn 2sBit rate mode : ConstantBit rate : 192 KbpsChannel(s) : 2 channelsChannel positions : Front: L RSampling rate : 48.0 KHzCompression mode : LossyDelay relative to video : -40msStream size : 60.5 MiB (5%)Default : YesForced : No

x264 log

raw [info]: 1280x720p 1:1 @ 25/1 fps (cfr)x264 [info]: using SAR=1/1x264 [info]: using cpu capabilities: MMX2 SSE2Fast SSSE3 SSE4.2 AVXx264 [info]: profile High, level 4.1x264 [info]: frame I:417 Avg QP:13.10 size:161500x264 [info]: frame P:17586 Avg QP:15.87 size: 49354x264 [info]: frame B:48067 Avg QP:19.15 size: 8011x264 [info]: consecutive B-frames: 2.3% 3.8% 4.3% 79.0% 3.9% 5.1% 0.8% 0.5% 0.2%x264 [info]: mb I I16..4: 5.3% 69.6% 25.1%x264 [info]: mb P I16..4: 1.4% 11.4% 1.6% P16..4: 38.8% 26.2% 14.4% 0.0% 0.0% skip: 6.2%x264 [info]: mb B I16..4: 0.2% 1.3% 0.2% B16..8: 28.8% 6.6% 1.7% direct: 6.6% skip:54.6% L0:37.0% L1:45.7% BI:17.3%x264 [info]: 8x8 transform intra:77.4% inter:51.0%x264 [info]: coded y,uvDC,uvAC intra: 81.3% 81.5% 57.7% inter: 20.6% 21.8% 4.6%x264 [info]: i16 v,h,dc,p: 25% 32% 5% 38%x264 [info]: i8 v,h,dc,ddl,ddr,vr,hd,vl,hu: 15% 17% 8% 6% 9% 10% 11% 10% 13%x264 [info]: i4 v,h,dc,ddl,ddr,vr,hd,vl,hu: 16% 16% 6% 7% 11% 11% 12% 9% 12%x264 [info]: i8c dc,h,v,p: 37% 30% 21% 12%x264 [info]: Weighted P-Frames: Y:2.6% UV:1.5%x264 [info]: ref P L0: 59.6% 10.9% 15.2% 4.3% 3.6% 2.5% 2.3% 1.5% 0.1% 0.0%x264 [info]: ref B L0: 83.6% 9.0% 3.2% 1.6% 1.2% 0.8% 0.5%x264 [info]: ref B L1: 97.0% 3.0%x264 [info]: kb/s:3996.84encoded 66072 frames, 13.22 fps, 3996.84 kb/s

Скриншоты

-
[Профиль] [ЛС]
Кто просматривает тему:

Показать сообщения:    

Текущее время: Сегодня 16:20

Часовой пояс: GMT



Вы не можете начинать темы
Вы не можете отвечать на сообщения
Вы не можете редактировать свои сообщения
Вы не можете удалять свои сообщения
Вы не можете голосовать в опросах
Вы не можете прикреплять файлы к сообщениям
Вы не можете скачивать файлы