Как убивали Югославию. Тень Дейтона (Алексей Денисов) [2015, Документальный, история, HDTV 1080i]

 
Автор Сообщение

TorrentFilm ®

Пол:

Стаж: 2 года

Сообщений: 7741



Награды: Нет

Торрент-статистика

Создавать темы 29-Апр-2015 00:04

[Цитировать]

Как убивали Югославию. Тень Дейтона
Год выпуска: 2015
Страна: Россия
Телеканал: Россия HD
Жанр: Документальный, история
Продолжительность: 00:44:02
Перевод: Не требуется
Режиссер: Алексей Денисов
Описание: 21 ноября 1995 года мировые информационные агентства передали срочную новость из Соединенных Штатов Америки. На военной базе в Дейтоне президентами Сербии, Хорватии и лидером боснийских мусульман было подписано соглашение о прекращении гражданской войны в Боснии и Герцеговине. В соответствии с ним эта часть бывшей Югославии отныне разделялась на мусульмано-хорватскую федерацию и Республику Сербскую. Для контроля за границами и поддержки перемирия туда вводятся международные силы под командованием НАТО – всего 60 тысяч человек, половину из которых составляют американцы. Сербы, которые к этому моменту контролировали почти 75% территории Боснии и Герцеговины, пошли на серьезные уступки и согласились оставить себе только 49% территории. Это было сделано ради прекращения гражданской войны, которая к этому времени фактически уничтожила бывшую Югославию.
В Дейтоне президент США Клинтон заявит журналистам о "ключевой роли" Слободана Милошевича в прекращении гражданской войны и назовет сербского президента "гарантом мира на Балканах". Всего через несколько лет после этих заявлений Сербия подвергнется сокрушительным ракетно-бомбовым ударам со стороны США и стран НАТО, потеряет Косово, а "гарант мира" Слободан Милошевич умрет при загадочных обстоятельствах в тюрьме Гаагского трибунала.
Тип релиза: HDTV 1080i
Контейнер: TS
Видео: MPEG-TS AVC, 7797 Кбит/с, 1920x1080
Аудио: MP2, 2 ch, 224 Кбит/с

MediaInfo

ОбщееИдентификатор : 1 (0x1)Полное имя : *:\Как убивали Югославию.Тень Дейтона.HDTV.1080i.tsФормат : MPEG-TSРазмер файла : 2,60 ГбайтПродолжительность : 44 м.Режим общего битрейта : ПеременныйОбщий поток : 8440 Кбит/сек
ВидеоИдентификатор : 41 (0x29)Идентификатор меню : 60 (0x3C)Формат : AVCФормат/Информация : Advanced Video CodecПрофиль формата : High@L4Параметр CABAC формата : ДаПараметр ReFrames формата : 3 кадраИдентификатор кодека : 27Продолжительность : 44 м.Битрейт : 7797 Кбит/секШирина : 1920 пикселейВысота : 1080 пикселейСоотношение сторон : 16:9Частота кадров : 25,000 кадров/секСтандарт вещания : ComponentЦветовое пространство : YUVСубдискретизация насыщенности : 4:2:0Битовая глубина : 8 битТип развёртки : ЧересстрочнаяПорядок развёртки : Верхнее поле первоеБит/(Пиксели*Кадры) : 0.150Размер потока : 2,40 Гбайт (92%)Цветовой диапазон : LimitedОсновные цвета : BT.709Характеристики трансфера : BT.709Коэффициенты матрицы : BT.709
АудиоИдентификатор : 44 (0x2C)Идентификатор меню : 60 (0x3C)Формат : MPEG AudioВерсия формата : Version 1Профиль формата : Layer 2Идентификатор кодека : 3Продолжительность : 44 м.Вид битрейта : ПостоянныйБитрейт : 224 Кбит/секКаналы : 2 каналаЧастота : 48,0 КГцМетод сжатия : С потерямиЗадержка видео : -40 мс.Размер потока : 70,6 Мбайт (3%)Язык : Russian

Скриншоты

[Профиль] [ЛС]
Кто просматривает тему:

Показать сообщения:    

Текущее время: Сегодня 02:43

Часовой пояс: GMT



Вы не можете начинать темы
Вы не можете отвечать на сообщения
Вы не можете редактировать свои сообщения
Вы не можете удалять свои сообщения
Вы не можете голосовать в опросах
Вы не можете прикреплять файлы к сообщениям
Вы не можете скачивать файлы