Как приручить дракона 3 / How to Train Your Dragon: The Hidden World (2019) WEB-DL 1080p | HDRezka Studio

 
Author Message

DOMINION ®

Gender:

Longevity: 7 months 2 days

Posts: 1096



: 6 ()

За внесенный вклад в развитие сайта (1) Друг (1) Top Releaser 3 (1)
Торрент-статистика

Post 03-Apr-2019 19:04

[Quote]

Информация о фильме
Название: Как приручить дракона 3
Оригинальное название: How to Train Your Dragon: The Hidden World
Год выхода: 2019
Жанр: Мультфильм, фэнтези, боевик, комедия, приключения, семейный, полнометражный
Режиссер: Дин ДеБлуа
В ролях: Кейт Бланшетт, Джерард Батлер, Джона Хилл, Кит Харингтон, Кристен Уиг, Джей Барушель, Кристофер Минц-Плассе, Америка Феррера, Оулавюр Дарри Оулафссон, Ф. Мюррэй Абрахам, Крэйг Фергюсон, Джастин Руппл

О фильме: Когда-то викинги жили в гармонии с драконами. В те времена они делили радость, горе… и последние штаны. Казалось, что так будет всегда, но появление загадочной Дневной Фурии изменило жизнь острова. И теперь Иккинг и Беззубик столкнутся с безжалостным охотником на драконов, жаждущим уничтожить все, что им дорого.
Страна: США
Студия: DreamWorks Animation, Mad Hatter Entertainment
Продолжительность: 01:44:26
Перевод: Профессиональный многоголосый | HDRezka Studio
Качество: WEB-DL 1080p
Видео: MPEG-4 AVC, 1920x816, 4521 Kbit/s, 23.976 fps
Звук:
Аудио #01: 48 kHz, AC3, 2.0, 192 Kbps | HDRezka Studio | RUS |
Аудио #02: 48 kHz, AC3, 5.1, 384 Kbps | Оригинал | ENG |
Субтитры: Английские

Скриншоты

MI

General
Unique ID : 278857292830284783194340637360568284422 (0xD1C9F6073179FAB81D12205A7B0E3506)
Complete name : D:Video111How.to.Train.Your.Dragon.The.Hidden.World.2019.WEB-DL.1080p.seleZen.mkv
Format : Matroska
Format version : Version 4
File size : 3.72 GiB
Duration : 1 h 44 min
Overall bit rate : 5 097 kb/s
Movie name : How to Train Your Dragon The Hidden World 2019 from селезень
Encoded date : UTC 2019-04-02 18:43:10
Writing application : mkvmerge v32.0.0 ('Astral Progressions') 64-bit
Writing library : libebml v1.3.7 + libmatroska v1.5.0
Video
ID : 1
Format : AVC
Format/Info : Advanced Video Codec
Format profile : High@L4
Format settings : CABAC / 5 Ref Frames
Format settings, CABAC : Yes
Format settings, ReFrames : 5 frames
Codec ID : V_MPEG4/ISO/AVC
Duration : 1 h 44 min
Bit rate : 4 521 kb/s
Width : 1 920 pixels
Height : 816 pixels
Display aspect ratio : 2.35:1
Frame rate mode : Constant
Frame rate : 23.976 FPS
Color space : YUV
Chroma subsampling : 4:2:0
Bit depth : 8 bits
Scan type : Progressive
Bits/(Pixel*Frame) : 0.120
Stream size : 3.30 GiB (89%)
Language : English
Default : Yes
Forced : No
Color range : Limited
Color primaries : BT.709
Transfer characteristics : BT.709
Matrix coefficients : BT.709
Audio #1
ID : 2
Format : AC-3
Format/Info : Audio Coding 3
Commercial name : Dolby Digital
Codec ID : A_AC3
Duration : 1 h 44 min
Bit rate mode : Constant
Bit rate : 192 kb/s
Channel(s) : 2 channels
Channel layout : L R
Sampling rate : 48.0 kHz
Frame rate : 31.250 FPS (1536 SPF)
Bit depth : 16 bits
Compression mode : Lossy
Stream size : 143 MiB (4%)
Title : MVO [HDRezka Studio]
Language : Russian
Service kind : Complete Main
Default : Yes
Forced : Yes
Audio #2
ID : 3
Format : AC-3
Format/Info : Audio Coding 3
Commercial name : Dolby Digital
Codec ID : A_AC3
Duration : 1 h 44 min
Bit rate mode : Constant
Bit rate : 384 kb/s
Channel(s) : 6 channels
Channel layout : L R C LFE Ls Rs
Sampling rate : 48.0 kHz
Frame rate : 31.250 FPS (1536 SPF)
Bit depth : 16 bits
Compression mode : Lossy
Stream size : 286 MiB (8%)
Title : Original
Language : English
Service kind : Complete Main
Default : No
Forced : No
Text
ID : 4
Format : UTF-8
Codec ID : S_TEXT/UTF8
Codec ID/Info : UTF-8 Plain Text
Duration : 1 h 43 min
Bit rate : 62 b/s
Count of elements : 1792
Stream size : 48.0 KiB (0%)
Title : SDH
Language : English
Default : No
Forced : No
Menu
00:00:00.000 : en:1
00:05:14.522 : en:2
00:10:27.835 : en:3
00:14:53.225 : en:4
00:20:34.065 : en:5
00:24:39.684 : en:6
00:28:41.884 : en:7
00:31:11.115 : en:8
00:37:36.125 : en:9
00:44:39.548 : en:10
00:47:54.575 : en:11
00:53:12.017 : en:12
00:57:37.281 : en:13
01:01:26.050 : en:14
01:08:56.916 : en:15
01:14:18.695 : en:16
01:19:32.133 : en:17
01:23:24.281 : en:18
01:28:25.707 : en:19
01:33:54.368 : en:20
[Profile] [PM]
Кто просматривает тему:

Display posts from previous:    

The time now is: Today 20:20

All times are GMT



You cannot post new topics in this forum
You cannot reply to topics in this forum
You cannot edit your posts in this forum
You cannot delete your posts in this forum
You cannot vote in polls in this forum
You cannot attach files in this forum
You cannot download files in this forum