Как приручить дракона(Трилогия) / How to Train Your Dragon(Trilogy) (Дин ДеБлуа, Крис Сандерс) [2010-2019,Мультфильм, фэнтези, боевик, комедия, приключения, BDRip 1080p] [Dub+Ukr+ENG]+[Subs Rus ,Ukr , ENG]

 
Author Message

Враг Нароода ®

Gender:

Longevity: 4 years 2 months

Posts: 270



: 2 ()

Mega Seeder 1 (1) За внесенный вклад в развитие сайта (1)
Торрент-статистика

Post 20-Apr-2019 07:54

[Quote]

--Как приручить дракона(Трилогия) / How to Train Your Dragon(Trilogy) -- --Год выпуска:2010-2019
Выпущено: США , DreamWorks Animation, Mad Hatter Entertainment
Жанр: Мультфильм, фэнтези, боевик, комедия, приключения, семейный, полнометражный
Продолжительность:1 ~ 01:37:53,2 ~01:41:55,3 ~ 01:44:06--Озвучка #1: Профессиональный многоголосый - Дублированный - Русский
Озвучка #2: Профессиональный многоголосый - Дублированный - Украинский
Озвучка #3: Профессиональный многоголосый -Английский - Оригинал
Субтитры: Русский ,Украинский, English
--Релиз Без Рекламы --MDB --Режиссеры:
Алан Дин ДеБлуа, Крис Сандерс--В ролях: : Джей Барушель, Джерард Батлер, Крэйг Фергюсон, Америка Феррера, Джона Хилл, Кристофер Минц-Плассе, ТиДжей Миллер, Кристен Уиг, Робин Аткин Даунс, Филип МакГрэйд-- Когда-то викинги жили в гармонии с драконами. В те времена они делили радость, горе… и последние штаны. Казалось, что так будет всегда, но появление загадочной Дневной Фурии изменило жизнь острова. И теперь Иккинг и Беззубик столкнутся с безжалостным охотником на драконов, жаждущим уничтожить все, что им дорого..-- -- Как приручить дракона 1 -2--Качество :BDRip 1080p
Формат: MKV
Видео кодек: H265
Видео: 7131Кбит/сек,1920х1080(16.9),в 23.976кадр/сек,HEVC (Main@L5@High)--Аудио Кодек:AC3
Аудио #1:AC3 640 Kbps, 48.0 KHz, 6 ch- -Русский
Аудио #2:AC3 640 Kbps, 48.0 KHz, 6 ch--Украинский
Аудио #3: AC3, 640 Kbps, 48.0 KHz,6 ch - - English - Оригинал-- Как приручить дракона 3--Качество :BDRip 1080p
Формат: MKV
Видео кодек: H264
Видео: 11.2Mбит/сек,1920х816(2.35.1),в 23.976кадр/сек,AVC (High@L4.1)(CABAC/5 Ref Frames)--Аудио Кодек:AC3
Аудио #1:AC3 640 Kbps, 48.0 KHz, 6 ch- -Русский
Аудио #2: AC3, 640 Kbps, 48.0 KHz,6 ch - - English - Оригинал--

MediaInfo Как приручить дракона 1

Общее
Уникальный идентификатор : 257570479260655182636300209285255821277 (0xC1C64516D825AA2D63EB1E3D8F2277DD)
Полное имя : C:\Users\Russian Patriot\Downloads\Как приручить дракона - How to Train Your Dragon\How_to_Train_Your_Dragon_Trilogy_Н265_DD5.1_N.B_BDRip_1080_Rus_Ukr_Eng\How_to_Train_Your_Dragon_2010_Н265_DD5.1_N.B_BDRip_1080_Rus_Ukr_Eng.mkv
Формат : Matroska
Версия формата : Version 4
Размер файла : 6,19 Гбайт
Продолжительность : 1 ч. 37 м.
Общий поток : 9058 Кбит/сек
Название фильма : How to Train Your Dragon 2010 @ Nikolai.Baranov & PIRATIYA
Дата кодирования : UTC 2019-04-03 17:00:15
Программа кодирования : mkvmerge v32.0.0 ('Astral Progressions') 64-bit
Библиотека кодирования : libebml v1.3.7 + libmatroska v1.5.0
Обложка : Yes
Attachments : cover.jpg
Видео
Идентификатор : 1
Формат : HEVC
Формат/Информация : High Efficiency Video Coding
Профиль формата : Main@L5@High
Идентификатор кодека : V_MPEGH/ISO/HEVC
Продолжительность : 1 ч. 37 м.
Битрейт : 7135 Кбит/сек
Ширина : 1920 пикселей
Высота : 1080 пикселей
Соотношение сторон : 16:9
Режим частоты кадров : Постоянный
Частота кадров : 23,976 (24000/1001) кадра/сек
Цветовое пространство : YUV
Субдискретизация насыщенности : 4:2:0
Битовая глубина : 8 бит
Бит/(Пиксели*Кадры) : 0.144
Размер потока : 4,88 Гбайт (79%)
Заголовок : How_to_Train_Your_Dragon_2010_Н265_DD5.1_N.B_BDRip_1080_Rus_Ukr_Eng
Язык : Russian
Default : Да
Forced : Нет
Аудио #1
Идентификатор : 5
Формат : AC-3
Формат/Информация : Audio Coding 3
Коммерческое название : Dolby Digital
Идентификатор кодека : A_AC3
Продолжительность : 1 ч. 37 м.
Вид битрейта : Постоянный
Битрейт : 640 Кбит/сек
Каналы : 6 каналов
Channel layout : L R C LFE Ls Rs
Частота : 48,0 КГц
Частота кадров : 31,250 кадров/сек (1536 SPF)
Битовая глубина : 16 бит
Метод сжатия : С потерями
Размер потока : 448 Мбайт (7%)
Заголовок : DUB @DD5.1 AC3 ,640 Kbps, 48.0 KHz, 6 ch
Язык : Russian
ServiceKind/String : Complete Main
Default : Да
Forced : Нет
Аудио #2
Идентификатор : 6
Формат : AC-3
Формат/Информация : Audio Coding 3
Коммерческое название : Dolby Digital
Идентификатор кодека : A_AC3
Продолжительность : 1 ч. 37 м.
Вид битрейта : Постоянный
Битрейт : 640 Кбит/сек
Каналы : 6 каналов
Channel layout : L R C LFE Ls Rs
Частота : 48,0 КГц
Частота кадров : 31,250 кадров/сек (1536 SPF)
Битовая глубина : 16 бит
Метод сжатия : С потерями
Размер потока : 448 Мбайт (7%)
Заголовок : DUB @DD5.1 AC3 ,640 Kbps, 48.0 KHz, 6 ch
Язык : Ukrainian
ServiceKind/String : Complete Main
Default : Нет
Forced : Нет
Аудио #3
Идентификатор : 7
Формат : AC-3
Формат/Информация : Audio Coding 3
Коммерческое название : Dolby Digital
Идентификатор кодека : A_AC3
Продолжительность : 1 ч. 37 м.
Вид битрейта : Постоянный
Битрейт : 640 Кбит/сек
Каналы : 6 каналов
Channel layout : L R C LFE Ls Rs
Частота : 48,0 КГц
Частота кадров : 31,250 кадров/сек (1536 SPF)
Битовая глубина : 16 бит
Метод сжатия : С потерями
Размер потока : 448 Мбайт (7%)
Заголовок : Original@DD5.1 AC3 ,640 Kbps, 48.0 KHz, 6 ch
Язык : English
ServiceKind/String : Complete Main
Default : Нет
Forced : Нет
Текст #1
Идентификатор : 2
Формат : UTF-8
Идентификатор кодека : S_TEXT/UTF8
Идентификатор кодека/Информация : UTF-8 Plain Text
Продолжительность : 1 ч. 36 м.
Битрейт : 71 бит/сек
ElementCount : 875
Размер потока : 50,8 Кбайт (0%)
Заголовок : Rus
Язык : Russian
Default : Да
Forced : Нет
Текст #2
Идентификатор : 3
Формат : UTF-8
Идентификатор кодека : S_TEXT/UTF8
Идентификатор кодека/Информация : UTF-8 Plain Text
Продолжительность : 1 ч. 28 м.
Битрейт : 67 бит/сек
ElementCount : 871
Размер потока : 43,7 Кбайт (0%)
Заголовок : Ukr
Язык : Ukrainian
Default : Нет
Forced : Нет
Текст #3
Идентификатор : 4
Формат : UTF-8
Идентификатор кодека : S_TEXT/UTF8
Идентификатор кодека/Информация : UTF-8 Plain Text
Продолжительность : 1 ч. 28 м.
Битрейт : 45 бит/сек
ElementCount : 866
Размер потока : 29,4 Кбайт (0%)
Заголовок : Eng
Язык : English
Default : Нет
Forced : Нет
Меню
00:00:00.000 : :Глава 01 / :Глава 01 / :Глава 01 / :Глава 01 / :Глава 01 / :Глава 01
--

MediaInfo Как приручить дракона 2

Общее
Уникальный идентификатор : 133353823930144028803469017778097891777 (0x6453032429D9235F93048B74B10A29C1)
Полное имя : C:\Users\Russian Patriot\Downloads\Как приручить дракона - How to Train Your Dragon\How_to_Train_Your_Dragon_Trilogy_Н265_DD5.1_N.B_BDRip_1080_Rus_Ukr_Eng\How_to_Train_Your_Dragon_2014_Н265_DD5.1_N.B_BDRip_1080_Rus_Ukr_Eng.mkv
Формат : Matroska
Версия формата : Version 4
Размер файла : 6,27 Гбайт
Продолжительность : 1 ч. 41 м.
Общий поток : 8803 Кбит/сек
Название фильма : How to Train Your Dragon 2014 @ Nikolai.Baranov & PIRATIYA
Дата кодирования : UTC 2019-04-19 05:38:55
Программа кодирования : mkvmerge v33.1.0 ('Primrose') 64-bit
Библиотека кодирования : libebml v1.3.7 + libmatroska v1.5.0
Обложка : Yes
Attachments : cover.jpg
Видео
Идентификатор : 1
Формат : HEVC
Формат/Информация : High Efficiency Video Coding
Профиль формата : Main@L5@High
Идентификатор кодека : V_MPEGH/ISO/HEVC
Продолжительность : 1 ч. 41 м.
Битрейт : 7131 Кбит/сек
Ширина : 1920 пикселей
Высота : 1080 пикселей
Соотношение сторон : 16:9
Режим частоты кадров : Постоянный
Частота кадров : 23,976 (24000/1001) кадра/сек
Цветовое пространство : YUV
Субдискретизация насыщенности : 4:2:0
Битовая глубина : 8 бит
Бит/(Пиксели*Кадры) : 0.143
Размер потока : 5,08 Гбайт (81%)
Заголовок : How_to_Train_Your_Dragon_2014_Н265_DD5.1_N.B_BDRip_1080_Rus_Ukr_Eng
Язык : Russian
Default : Да
Forced : Нет
Аудио #1
Идентификатор : 5
Формат : AC-3
Формат/Информация : Audio Coding 3
Коммерческое название : Dolby Digital
Идентификатор кодека : A_AC3
Продолжительность : 1 ч. 41 м.
Вид битрейта : Постоянный
Битрейт : 640 Кбит/сек
Каналы : 6 каналов
Channel layout : L R C LFE Ls Rs
Частота : 48,0 КГц
Частота кадров : 31,250 кадров/сек (1536 SPF)
Битовая глубина : 16 бит
Метод сжатия : С потерями
Размер потока : 467 Мбайт (7%)
Заголовок : DUB @DD5.1 AC3 ,640 Kbps, 48.0 KHz, 6 ch
Язык : Russian
ServiceKind/String : Complete Main
Default : Да
Forced : Нет
Аудио #2
Идентификатор : 6
Формат : AC-3
Формат/Информация : Audio Coding 3
Коммерческое название : Dolby Digital
Идентификатор кодека : A_AC3
Продолжительность : 1 ч. 2 м.
Вид битрейта : Постоянный
Битрейт : 640 Кбит/сек
Каналы : 6 каналов
Channel layout : L R C LFE Ls Rs
Частота : 48,0 КГц
Частота кадров : 31,250 кадров/сек (1536 SPF)
Битовая глубина : 16 бит
Метод сжатия : С потерями
Размер потока : 284 Мбайт (4%)
Заголовок : DUB @DD5.1 AC3 ,640 Kbps, 48.0 KHz, 6 ch
Язык : Ukrainian
ServiceKind/String : Complete Main
Default : Нет
Forced : Нет
Аудио #3
Идентификатор : 7
Формат : AC-3
Формат/Информация : Audio Coding 3
Коммерческое название : Dolby Digital
Идентификатор кодека : A_AC3
Продолжительность : 1 ч. 41 м.
Вид битрейта : Постоянный
Битрейт : 640 Кбит/сек
Каналы : 6 каналов
Channel layout : L R C LFE Ls Rs
Частота : 48,0 КГц
Частота кадров : 31,250 кадров/сек (1536 SPF)
Битовая глубина : 16 бит
Метод сжатия : С потерями
Размер потока : 467 Мбайт (7%)
Заголовок : Original@DD5.1 AC3 ,640 Kbps, 48.0 KHz, 6 ch
Язык : English
ServiceKind/String : Complete Main
Default : Нет
Forced : Нет
Текст #1
Идентификатор : 2
Формат : UTF-8
Идентификатор кодека : S_TEXT/UTF8
Идентификатор кодека/Информация : UTF-8 Plain Text
Продолжительность : 1 ч. 40 м.
Битрейт : 70 бит/сек
ElementCount : 1145
Размер потока : 51,7 Кбайт (0%)
Заголовок : Rus
Язык : Russian
Default : Да
Forced : Нет
Текст #2
Идентификатор : 3
Формат : UTF-8
Идентификатор кодека : S_TEXT/UTF8
Идентификатор кодека/Информация : UTF-8 Plain Text
Продолжительность : 1 ч. 40 м.
Битрейт : 72 бит/сек
ElementCount : 1146
Размер потока : 53,0 Кбайт (0%)
Заголовок : Ukr
Язык : Ukrainian
Default : Нет
Forced : Нет
Текст #3
Идентификатор : 4
Формат : UTF-8
Идентификатор кодека : S_TEXT/UTF8
Идентификатор кодека/Информация : UTF-8 Plain Text
Продолжительность : 1 ч. 31 м.
Битрейт : 47 бит/сек
ElementCount : 1144
Размер потока : 31,6 Кбайт (0%)
Заголовок : Eng
Язык : English
Default : Нет
Forced : Нет
Меню
00:00:00.000 : en:Chapter 01
00:03:27.999 : en:Chapter 02
00:05:20.695 : en:Chapter 03
00:07:46.007 : en:Chapter 04
00:10:16.032 : en:Chapter 05
00:13:16.337 : en:Chapter 06
00:16:59.059 : en:Chapter 07
00:20:01.700 : en:Chapter 08
00:23:43.255 : en:Chapter 09
00:27:14.466 : en:Chapter 10
00:29:21.468 : en:Chapter 11
00:33:41.936 : en:Chapter 12
00:37:05.473 : en:Chapter 13
00:39:06.969 : en:Chapter 14
00:40:59.165 : en:Chapter 15
00:45:03.992 : en:Chapter 16
00:47:16.625 : en:Chapter 17
00:51:51.525 : en:Chapter 18
00:54:35.730 : en:Chapter 19
00:56:15.997 : en:Chapter 20
01:00:33.171 : en:Chapter 21
01:04:28.781 : en:Chapter 22
01:06:34.949 : en:Chapter 23
01:09:44.138 : en:Chapter 24
01:14:02.146 : en:Chapter 25
01:18:35.127 : en:Chapter 26
01:21:07.153 : en:Chapter 27
01:22:55.053 : en:Chapter 28
01:24:30.064 : en:Chapter 29
01:28:04.654 : en:Chapter 30
01:31:03.499 : en:Chapter 31
01:32:21.994 : en:Chapter 32
--

MediaInfo Как приручить дракона 3

Общее
Уникальный идентификатор : 210236804134510514387374379307863711883 (0x9E2A22B9ECD74EFEB978262F6FE5208B)
Полное имя : C:\Users\Russian Patriot\Downloads\Как приручить дракона - How to Train Your Dragon\How_to_Train_Your_Dragon_Trilogy_Н265_DD5.1_N.B_BDRip_1080_Rus_Ukr_Eng\How_to_Train_Your_Dragon_2019_Н264_DD5.1_N.B_BDRip_1080_Rus_Eng.mkv
Формат : Matroska
Версия формата : Version 4
Размер файла : 9,04 Гбайт
Продолжительность : 1 ч. 44 м.
Общий поток : 12,4 Мбит/сек
Название фильма : How to Train Your Dragon 2019 @ Nikolai.Baranov & PIRATIYA
Дата кодирования : UTC 2019-04-19 15:14:15
Программа кодирования : mkvmerge v33.1.0 ('Primrose') 64-bit
Библиотека кодирования : libebml v1.3.7 + libmatroska v1.5.0
Видео
Идентификатор : 1
Формат : AVC
Формат/Информация : Advanced Video Codec
Профиль формата : High@L4.1
Настройки формата : CABAC / 5 Ref Frames
Параметр CABAC формата : Да
Параметр RefFrames формата : 5 кадров
Идентификатор кодека : V_MPEG4/ISO/AVC
Продолжительность : 1 ч. 44 м.
Битрейт : 11,2 Мбит/сек
Ширина : 1920 пикселей
Высота : 816 пикселей
Соотношение сторон : 2,35:1
Режим частоты кадров : Постоянный
Частота кадров : 23,976 (24000/1001) кадра/сек
Цветовое пространство : YUV
Субдискретизация насыщенности : 4:2:0
Битовая глубина : 8 бит
Тип развёртки : Прогрессивная
Бит/(Пиксели*Кадры) : 0.297
Размер потока : 8,11 Гбайт (90%)
Заголовок : How_to_Train_Your_Dragon_2019_Н264_DD5.1_N.B_BDRip_1080_Rus_Eng
Библиотека кодирования : x264 core 157 r2938 2b00a84 TnP@MTeam Mod
Настройки программы : cabac=1 / ref=5 / deblock=1:-3:-3 / analyse=0x3:0x133 / me=umh / subme=10 / psy=1 / psy_rd=1.05:0.00 / mixed_ref=1 / me_range=32 / chroma_me=1 / trellis=2 / 8x8dct=1 / cqm=0 / deadzone=21,11 / fast_pskip=0 / chroma_qp_offset=-2 / threads=12 / lookahead_threads=2 / sliced_threads=0 / nr=0 / decimate=0 / interlaced=0 / bluray_compat=0 / constrained_intra=0 / bframes=8 / b_pyramid=2 / b_adapt=2 / b_bias=0 / direct=3 / weightb=1 / open_gop=0 / weightp=2 / keyint=250 / keyint_min=24 / scenecut=40 / intra_refresh=0 / rc_lookahead=250 / rc=crf / mbtree=0 / crf=16.3 / qcomp=0.60 / qpmin=0 / qpmax=69 / qpstep=4 / vbv_maxrate=62500 / vbv_bufsize=78125 / crf_max=0.0 / nal_hrd=none / filler=0 / ip_ratio=1.30 / pb_ratio=1.20 / aq=3:0.80
Язык : Russian
Default : Да
Forced : Нет
Цветовой диапазон : Limited
Основные цвета : BT.709
Коэффициенты матрицы : BT.709
Аудио #1
Идентификатор : 2
Формат : AC-3
Формат/Информация : Audio Coding 3
Коммерческое название : Dolby Digital
Идентификатор кодека : A_AC3
Продолжительность : 1 ч. 44 м.
Вид битрейта : Постоянный
Битрейт : 640 Кбит/сек
Каналы : 6 каналов
Channel layout : L R C LFE Ls Rs
Частота : 48,0 КГц
Частота кадров : 31,250 кадров/сек (1536 SPF)
Битовая глубина : 16 бит
Метод сжатия : С потерями
Размер потока : 476 Мбайт (5%)
Заголовок : DUB - iTunes @DD5.1 AC3 ,640 Kbps, 48.0 KHz, 6 ch
Язык : Russian
ServiceKind/String : Complete Main
Default : Да
Forced : Нет
Аудио #2
Идентификатор : 3
Формат : AC-3
Формат/Информация : Audio Coding 3
Коммерческое название : Dolby Digital
Идентификатор кодека : A_AC3
Продолжительность : 1 ч. 44 м.
Вид битрейта : Постоянный
Битрейт : 640 Кбит/сек
Каналы : 6 каналов
Channel layout : L R C LFE Ls Rs
Частота : 48,0 КГц
Частота кадров : 31,250 кадров/сек (1536 SPF)
Битовая глубина : 16 бит
Метод сжатия : С потерями
Размер потока : 477 Мбайт (5%)
Заголовок : Original@DD5.1 AC3 ,640 Kbps, 48.0 KHz, 6 ch
Язык : English
ServiceKind/String : Complete Main
Default : Нет
Forced : Нет
Текст #1
Идентификатор : 4
Формат : UTF-8
Идентификатор кодека : S_TEXT/UTF8
Идентификатор кодека/Информация : UTF-8 Plain Text
Продолжительность : 1 ч. 32 м.
Битрейт : 59 бит/сек
ElementCount : 1542
Размер потока : 40,2 Кбайт (0%)
Заголовок : Original - SDH
Язык : English
Default : Да
Forced : Нет
Текст #2
Идентификатор : 5
Формат : UTF-8
Идентификатор кодека : S_TEXT/UTF8
Идентификатор кодека/Информация : UTF-8 Plain Text
Продолжительность : 1 ч. 32 м.
Битрейт : 46 бит/сек
ElementCount : 1100
Размер потока : 31,5 Кбайт (0%)
Заголовок : Original
Язык : English
Default : Нет
Forced : Нет
Меню
00:00:00.000 : en:Chapter 01
00:05:13.522 : en:Chapter 02
00:10:26.835 : en:Chapter 03
00:14:52.225 : en:Chapter 04
00:20:33.065 : en:Chapter 05
00:24:38.686 : en:Chapter 06
00:28:40.886 : en:Chapter 07
00:31:10.118 : en:Chapter 08
00:37:35.128 : en:Chapter 09
00:44:38.551 : en:Chapter 10
00:47:53.579 : en:Chapter 11
00:53:11.021 : en:Chapter 12
00:57:36.286 : en:Chapter 13
01:01:25.056 : en:Chapter 14
01:08:55.923 : en:Chapter 15
01:14:17.703 : en:Chapter 16
01:19:31.141 : en:Chapter 17
01:23:23.290 : en:Chapter 18
01:28:24.716 : en:Chapter 19
01:33:53.378 : en:Chapter 20
--

Скриншоты

Как приручить дракона 1

Как приручить дракона 2

Как приручить дракона 3
-- Как приручить дракона 1-- Как приручить дракона 2-- Как приручить дракона 3-- -- --Релиз от: Nikolai.Baranov & PIRATIYA . Поблагодарить:
ЯД: 410017546713876
-- -- -- --Время раздачи : 24/7--
[Profile] [PM]
Кто просматривает тему:

Display posts from previous:    

The time now is: Today 04:45

All times are GMT



You cannot post new topics in this forum
You cannot reply to topics in this forum
You cannot edit your posts in this forum
You cannot delete your posts in this forum
You cannot vote in polls in this forum
You cannot attach files in this forum
You cannot download files in this forum