Как поймать перо Жар-Птицы (Георгий Гитис, Вячеслав Плотников) [2013 г., Россия, мультфильм, фэнтези, BDRip-AVC]

 
Автор Сообщение

reversefile ®

Пол:

Стаж: 4 года 5 месяцев

Сообщений: 842

Откуда: ReverseFile.org



Награды: Нет

Торрент-статистика

Создавать темы 21-Июл-2014 18:12

[Цитировать]

Как поймать перо Жар-Птицы
-Страна: Россия
Жанр: мультфильм, фэнтези
Год выпуска: 2013
Продолжительность: 01:08:40-Перевод: не требуется
Cубтитры: нет-Режиссер: Георгий Гитис, Вячеслав Плотников
Роли озвучивали: Михаил Озеров, Дмитрий Дюжев, Юлия Савичева, Андрей Леонов, Нонна Гришаева, Алексей Колган, Михаил Хрусталев, Анатолий Петров, Юлия Галдун, Владимир Горбунов
Описание: Во исполнение воли царя Берендея, младший сын его Иван отправляется на поиски диковинной Жар-птицы. В поисках удачи Ивана Царевича сопровождает верный друг и помощник — Серый Волк, который, обладает всевозможными навыками и всегда спешит на помощь простодушному Ивану. Героев ждут увлекательные и опасные приключения, козни коварных братьев Ивана и его судьбоносная встреча с Еленой Прекрасной. Юные зрители погрузятся в волшебный мир русской сказки, с её традициями и характерной эстетикой, причудливо перемежающейся с приметами современного жанрового кино. Ну, а родители оценят актуальный юмор и модную современную музыку, написанную специально для фильма популярными рок-музыкантами.-Качество видео: BDRip-AVC [источник: Blu-Ray / 1080р / HDClub]
Формат видео: MKV-Видео: 1152x648 at 24.000 fps (True24p), MPEG-4 AVC, ~1820 kbps avg
Аудио 1: 48 kHz, AC3 Dolby Digital, 3/2 (L,C,R,l,r) + LFE ch, ~448.00 kbps avg-- --

x264log

x264 [info]: frame I:993 Avg QP: 9.89 size:122017
x264 [info]: frame P:27398 Avg QP:14.72 size: 17985
x264 [info]: frame B:70502 Avg QP:18.34 size: 4586
x264 [info]: consecutive B-frames: 5.4% 7.3% 12.6% 37.3% 14.0% 12.4% 3.5% 1.8% 1.6% 0.9% 1.1% 2.0%
x264 [info]: mb I I16..4: 17.7% 41.0% 41.3%
x264 [info]: mb P I16..4: 3.4% 5.5% 2.1% P16..4: 27.1% 10.0% 9.2% 0.9% 0.4% skip:41.4%
x264 [info]: mb B I16..4: 0.5% 0.5% 0.2% B16..8: 21.3% 5.5% 1.6% direct: 1.7% skip:68.7% L0:49.2% L1:45.3% BI: 5.5%
x264 [info]: 8x8 transform intra:47.8% inter:41.3%
x264 [info]: coded y,uvDC,uvAC intra: 50.8% 63.3% 49.0% inter: 6.9% 7.2% 3.2%
x264 [info]: i16 v,h,dc,p: 58% 19% 6% 18%
x264 [info]: i8 v,h,dc,ddl,ddr,vr,hd,vl,hu: 16% 17% 19% 6% 7% 8% 9% 8% 10%
x264 [info]: i4 v,h,dc,ddl,ddr,vr,hd,vl,hu: 17% 14% 15% 8% 10% 9% 9% 8% 10%
x264 [info]: i8c dc,h,v,p: 46% 26% 17% 11%
x264 [info]: Weighted P-Frames: Y:2.6% UV:2.0%
x264 [info]: ref P L0: 49.9% 3.7% 16.0% 8.2% 5.4% 5.0% 3.7% 2.7% 2.2% 2.6% 0.7% 0.0%
x264 [info]: ref B L0: 63.9% 13.4% 8.3% 4.1% 3.4% 2.6% 2.4% 1.2% 0.8%
x264 [info]: ref B L1: 90.2% 9.8%
x264 [info]: kb/s:1819.70

MediaInfo

General
Unique ID                                : 195756602057507640584687351912033799109 (0x934559A4D54C72A3AEEC132E8795CBC5)
Complete name                            : D:\ФИЛЬМЫ\Kak.poymat'.pero.zchar.ptitsi.2013.BDRip-AVC.andre90.mkv
Format                                   : Matroska
Format version                           : Version 4 / Version 2
File size                                : 1.09 GiB
Duration                                 : 1h 8mn
Overall bit rate                         : 2 270 Kbps
Movie name                               : Reliase for HDCLUB
Encoded date                             : UTC 2014-01-09 16:02:47
Writing application                      : mkvmerge v6.1.0 ('Old Devil') built on Mar  2 2013 14:32:37
Writing library                          : libebml v1.3.0 + libmatroska v1.4.0
Attachment                               : Yes
Video
ID                                       : 1
Format                                   : AVC
Format/Info                              : Advanced Video Codec
Format profile                           : High@L4.1
Format settings, CABAC                   : Yes
Format settings, ReFrames                : 10 frames
Codec ID                                 : V_MPEG4/ISO/AVC
Duration                                 : 1h 8mn
Bit rate                                 : 1 820 Kbps
Width                                    : 1 152 pixels
Height                                   : 648 pixels
Display aspect ratio                     : 16:9
Frame rate mode                          : Constant
Frame rate                               : 24.000 fps
Color space                              : YUV
Chroma subsampling                       : 4:2:0
Bit depth                                : 8 bits
Scan type                                : Progressive
Bits/(Pixel*Frame)                       : 0.102
Stream size                              : 873 MiB (78%)
Writing library                          : x264 core 133 r2334 a3ac64b
Encoding settings                        : cabac=1 / ref=10 / deblock=1:-2:-2 / analyse=0x3:0x133 / me=umh / subme=10 / psy=1 / psy_rd=1.00:0.00 / mixed_ref=1 / me_range=48 / chroma_me=1 / trellis=2 / 8x8dct=1 / cqm=0 / deadzone=21,11 / fast_pskip=0 / chroma_qp_offset=-2 / threads=3 / lookahead_threads=1 / sliced_threads=0 / nr=0 / decimate=1 / interlaced=0 / bluray_compat=0 / constrained_intra=0 / bframes=11 / b_pyramid=2 / b_adapt=2 / b_bias=0 / direct=1 / weightb=1 / open_gop=0 / weightp=2 / keyint=240 / keyint_min=24 / scenecut=40 / intra_refresh=0 / rc_lookahead=40 / rc=2pass / mbtree=1 / bitrate=1820 / ratetol=1.0 / qcomp=0.60 / qpmin=0 / qpmax=69 / qpstep=4 / cplxblur=20.0 / qblur=0.5 / vbv_maxrate=50000 / vbv_bufsize=62500 / nal_hrd=none / ip_ratio=1.40 / aq=1:1.00
Language                                 : Russian
Default                                  : Yes
Forced                                   : No
Audio
ID                                       : 2
Format                                   : AC-3
Format/Info                              : Audio Coding 3
Mode extension                           : CM (complete main)
Format settings, Endianness              : Big
Codec ID                                 : A_AC3
Duration                                 : 1h 8mn
Bit rate mode                            : Constant
Bit rate                                 : 448 Kbps
Channel count                            : 6 channels
Channel positions                        : Front: L C R, Side: L R, LFE
Sampling rate                            : 48.0 KHz
Bit depth                                : 16 bits
Compression mode                         : Lossy
Stream size                              : 220 MiB (20%)
Language                                 : Russian
Default                                  : Yes
Forced                                   : No
Menu
00:00:00.000                             : ru:Chapter 1
00:08:01.625                             : ru:Chapter 2
00:17:43.166                             : ru:Chapter 3
00:25:37.250                             : ru:Chapter 4
00:34:31.916                             : ru:Chapter 5
00:42:31.416                             : ru:Chapter 6
00:50:48.208                             : ru:Chapter 7
00:59:22.708                             : ru:Chapter 8
[Профиль] [ЛС]
Кто просматривает тему:

Показать сообщения:    

Текущее время: Сегодня 16:41

Часовой пояс: GMT



Вы не можете начинать темы
Вы не можете отвечать на сообщения
Вы не можете редактировать свои сообщения
Вы не можете удалять свои сообщения
Вы не можете голосовать в опросах
Вы не можете прикреплять файлы к сообщениям
Вы не можете скачивать файлы