Как поднять миллион. Исповедь Z@drota (2014) WEB-DLRip

 
Автор Сообщение

достали все ®

Пол:

Стаж: 1 год 8 месяцев

Сообщений: 6545



Награды: 12 (Подробнее)

Mega Seeder 3 (Количество: 1) Mega Seeder 4 (Количество: 1) Mega Releaser 1 (Количество: 1)
Торрент-статистика

Создавать темы 13-Май-2016 09:09

[Цитировать]

Информация о фильме
Оригинальное название: Как поднять миллион
Год выпуска: 2014
Жанр: Драма
Режиссер: Клим Шипенко
В ролях: Виктор Грудев, Дмитрий Калязин, Соня Карпунина, Анастасия Акатова, Николай Амосов, Александр Самойленко, Лидия Байрашевская, Михаил Бабичев, Любовь Толкалина, Михаил Довженко и др.
О фильме:
Женя живет в маленьком провинциальном городке. Он просиживает за компьютерами сутками, не отвлекаясь на еду и сон. Однажды Женя выясняет: на виртуальной реальности можно неплохо заработать. Начав с порносайтов, юноша вскоре получает свои первые деньги. Это в корне меняет его жизнь: больше он — не школьный изгой. Вчерашние недруги здороваются первыми, а самые красивые девочки ищут с ним встреч. Развивая свой бизнес, Женя в итоге оказывается перед выбором: принять законы коррумпированного мира и стать своим в далекой от идеала реальности, или пойти наперерез могущественным структурам, поставив под удар себя и своих близких?

Выпущено: Россия, Марс Медиа Энтертейнмент
Продолжительность: 01:29:23
Перевод: Не требуется
Субтитры: Отсутствуют
Файл
Качество: WEB-DLRip
Видео: XviD, ~ 1030 Кбит/с, 688x288
Аудио: MP3, 2 ch, 128 Кбит/с

МедиаИнфо

Ispoved.Z@drota.2014.WEB-DLRip.by.GeneralFilm.avi
Формат : AVI
Формат/Информация : Audio Video Interleave
Размер файла : 744 Мбайт
Продолжительность : 1 ч. 29 м.
Общий поток : 1164 Кбит/сек
Программа кодирования : VirtualDubMod 1.5.10.3 | www.virtualdub-fr.org || (build 2550/release)
Библиотека кодирования : VirtualDubMod build 2550/release
Видео
Идентификатор : 0
Формат : MPEG-4 Visual
Профиль формата : Advanced Simple@L5
Параметр BVOP формата : 1
Параметр QPel формата : Нет
Параметр GMC формата : Без точки перехода
Параметр матрицы формата : Выборочная
Идентификатор кодека : XVID
Идентификатор кодека/Подсказка : XviD
Продолжительность : 1 ч. 29 м.
Битрейт : 1026 Кбит/сек
Ширина : 688 пикселей
Высота : 288 пикселей
Соотношение сторон : 2,40:1
Частота кадров : 25,000 кадров/сек
Цветовое пространство : YUV
Субдискретизация насыщенности : 4:2:0
Битовая глубина : 8 бит
Тип развёртки : Прогрессивная
Метод сжатия : С потерями
Бит/(Пиксели*Кадры) : 0.207
Размер потока : 656 Мбайт (88%)
Библиотека кодирования : XviD 73
Аудио
Идентификатор : 1
Формат : MPEG Audio
Версия формата : Version 1
Профиль формата : Layer 3
Идентификатор кодека : 55
Идентификатор кодека/Подсказка : MP3
Продолжительность : 1 ч. 29 м.
Вид битрейта : Постоянный
Битрейт : 128 Кбит/сек
Каналы : 2 канала
Частота : 48,0 КГц
Метод сжатия : С потерями
Размер потока : 81,8 Мбайт (11%)
Выравнивание : Соединение по промежуткам
Продолжительность промежутка : 40 мс. (1,00 видеокадр)
Время предзагрузки промежутка : 504 мс.
Библиотека кодирования : LAME3.99r
Настройки программы : -m s -V 4 -q 0 -lowpass 17 -b 128

Скриншоты



Релиз от:
Исходник: WEBRip 720p
[Профиль] [ЛС]
Кто просматривает тему:

Показать сообщения:    

Текущее время: Сегодня 22:43

Часовой пояс: GMT



Вы не можете начинать темы
Вы не можете отвечать на сообщения
Вы не можете редактировать свои сообщения
Вы не можете удалять свои сообщения
Вы не можете голосовать в опросах
Вы не можете прикреплять файлы к сообщениям
Вы не можете скачивать файлы