Как ослик грустью заболел (Юрий Прытков) [1987 г., рисованный мультфильм, DVB]

 
Автор Сообщение

TorrentFilm ®

Пол:

Стаж: 2 года

Сообщений: 7741



Награды: Нет

Торрент-статистика

Создавать темы 01-Янв-2016 00:15

[Цитировать]

Как ослик грустью заболел
Жанр: рисованный мультфильм
Год выпуска: 1987
Продолжительность: 00:09:33
Режиссёр: Юрий Прытков
Описание: Жил-был на свете ослик Плюш. Был он добрый, весёлый и трудолюбивый. И вот однажды ослик заболел какой-то необычной болезнью — он заболел... грустью. А всё потому, что во время каникул он отдыхал и ничего не делал. Выздоровел Плюш только тогда, когда понадобилась его помощь друзьям: автомобильчику Фыр-Фыру, девочке Гюльчаре и её папе.
Доп. информация:

Трансляция спутникового канала: "Карусель"
Качество видео: DVB
Формат видео: MPEG-PS
Видео: MPEG2 Video, 720x576, 25 fps, 3500 kbps
Аудио: MPEG Audio, 2 сh, 48 kHz, 192 kbps

MediaInfo

General
Complete name : D:\Как ослик грустью заболел. (1987)_DVB by SLuMeP.mpg
Format : MPEG-PS
File size : 260 MiB
Duration : 9mn 33s
Overall bit rate mode : Variable
Overall bit rate : 3 801 Kbps
Video
ID : 224 (0xE0)
Format : MPEG Video
Format version : Version 2
Format profile : Main@Main
Format settings, BVOP : Yes
Format settings, Matrix : Custom
Format settings, GOP : M=3, N=12
Duration : 9mn 33s
Bit rate mode : Variable
Bit rate : 3 534 Kbps
Maximum bit rate : 5 000 Kbps
Width : 720 pixels
Height : 576 pixels
Display aspect ratio : 4:3
Frame rate : 25.000 fps
Standard : PAL
Color space : YUV
Chroma subsampling : 4:2:0
Bit depth : 8 bits
Scan type : Interlaced
Scan order : Top Field First
Compression mode : Lossy
Bits/(Pixel*Frame) : 0.341
Time code of first frame : 00:00:00:00
Time code source : Group of pictures header
Stream size : 242 MiB (93%)
Audio
ID : 192 (0xC0)
Format : MPEG Audio
Format version : Version 1
Format profile : Layer 2
Duration : 9mn 33s
Bit rate mode : Constant
Bit rate : 192 Kbps
Channel(s) : 2 channels
Sampling rate : 48.0 KHz
Compression mode : Lossy
Stream size : 13.1 MiB (5%)

Скриншоты

[Профиль] [ЛС]
Кто просматривает тему:

Показать сообщения:    

Текущее время: Сегодня 06:25

Часовой пояс: GMT



Вы не можете начинать темы
Вы не можете отвечать на сообщения
Вы не можете редактировать свои сообщения
Вы не можете удалять свои сообщения
Вы не можете голосовать в опросах
Вы не можете прикреплять файлы к сообщениям
Вы не можете скачивать файлы