Как организовать оргию в небольшом городке / How to Plan an Orgy in a Small Town (2015) WEB-DL 1080p | L

 
Автор Сообщение

BOSS ®

Пол:

Стаж: 2 года 1 месяц

Сообщений: 3735

Откуда: ODESSA



Награды: 20 (Подробнее)

Top Keeper 3 (Количество: 1) Mega Seeder 2 (Количество: 1) Top Keeper 4 (Количество: 1)
Торрент-статистика

Создавать темы 20-Июн-2016 14:31

[Цитировать]

Информация о фильме
Название: Как организовать оргию в небольшом городке
Оригинальное название: How to Plan an Orgy in a Small Town
Год выхода: 2015
Жанр: комедия
Режиссер: Джереми Лалонд
В ролях: Джуэл Стэйт, Эннис Эсмер, Лорен Ли Смит, Кэтрин Изабель, Джонас Черник, Кристин Хорн, Хершел Блатт, Натали Браун, Кристиан Бруун, Ной Кэппи
О фильме: Кэсси Крэнстон «провинциальная шлюха», ставшая секс обозревателем. Она возвращается домой на похороны своей матери. В небольшой городке Биверс Ридж страсти накаляются, когда местные ребята, каждый преследуя свои цели, убеждают Кэсси организовать оргию.

Выпущено: Канада / Neophyte Productions
Продолжительность: 01:41:15
Озвучивание: Любительское (многоголосое) [Parovoz Production]
Примечание: Релиз без рекламы.
Файл
Формат: MKV
Качество: WEB-DL 1080p
Видео: MPEG-4 AVC, 4985 kb/s, 1916x1076
Аудио: Russian / English: AC3, 384 kb/s (6 ch)
Субтитры: English

MI

Format : Matroska
Format version : Version 2
File size : 4.15 GiB
Duration : 1h 41mn
Overall bit rate : 5 869 Kbps
Encoded date : UTC 2016-06-20 13:52:08
Writing application : mkvmerge v7.8.0 ('River Man') 32bit built on Apr 3 2015 12:11:22
Writing library : libebml v1.3.1 + libmatroska v1.4.2
Video
ID : 1
Format : AVC
Format/Info : Advanced Video Codec
Format profile : High@L4
Format settings, CABAC : Yes
Format settings, ReFrames : 4 frames
Codec ID : V_MPEG4/ISO/AVC
Duration : 1h 41mn
Bit rate : 4 985 Kbps
Width : 1 916 pixels
Height : 1 076 pixels
Display aspect ratio : 16:9
Frame rate mode : Constant
Frame rate : 23.976 fps
Color space : YUV
Chroma subsampling : 4:2:0
Bit depth : 8 bits
Scan type : Progressive
Bits/(Pixel*Frame) : 0.101
Stream size : 3.53 GiB (85%)
Language : English
Default : Yes
Forced : No
Color range : Limited
Color primaries : BT.709
Transfer characteristics : BT.709
Matrix coefficients : BT.709
Audio #1
ID : 2
Format : AC-3
Format/Info : Audio Coding 3
Mode extension : CM (complete main)
Format settings, Endianness : Big
Codec ID : A_AC3
Duration : 1h 41mn
Bit rate mode : Constant
Bit rate : 384 Kbps
Channel(s) : 6 channels
Channel positions : Front: L C R, Side: L R, LFE
Sampling rate : 48.0 KHz
Bit depth : 16 bits
Compression mode : Lossy
Stream size : 278 MiB (7%)
Language : Russian
Default : Yes
Forced : No
Audio #2
ID : 3
Format : AC-3
Format/Info : Audio Coding 3
Mode extension : CM (complete main)
Format settings, Endianness : Big
Codec ID : A_AC3
Duration : 1h 41mn
Bit rate mode : Constant
Bit rate : 384 Kbps
Channel(s) : 6 channels
Channel positions : Front: L C R, Side: L R, LFE
Sampling rate : 48.0 KHz
Bit depth : 16 bits
Compression mode : Lossy
Stream size : 278 MiB (7%)
Language : English
Default : No
Forced : No
Text
ID : 4
Format : UTF-8
Codec ID : S_TEXT/UTF8
Codec ID/Info : UTF-8 Plain Text
Language : English
Default : No
Forced : No
Menu
00:00:00.000 : en:Chapter 1
00:07:14.000 : en:Chapter 2
00:16:10.000 : en:Chapter 3
00:23:25.000 : en:Chapter 4
00:31:09.000 : en:Chapter 5
00:38:16.000 : en:Chapter 6
00:47:23.000 : en:Chapter 7
00:55:19.000 : en:Chapter 8
01:03:23.000 : en:Chapter 9
01:11:55.000 : en:Chapter 10
01:19:01.000 : en:Chapter 11
01:27:37.000 : en:Chapter 12
01:38:12.000 : en:Chapter 13

Скриншоты



[Профиль] [ЛС]
Кто просматривает тему:

Показать сообщения:    

Текущее время: Сегодня 12:49

Часовой пояс: GMT



Вы не можете начинать темы
Вы не можете отвечать на сообщения
Вы не можете редактировать свои сообщения
Вы не можете удалять свои сообщения
Вы не можете голосовать в опросах
Вы не можете прикреплять файлы к сообщениям
Вы не можете скачивать файлы