Как мыши кота хоронили (Михаил Чиаурели) [1969, Рисованный мультфильм, VHSRip]

 
Автор Сообщение

painkiller ®

Стаж: 2 года 3 месяца

Сообщений: 582



Награды: Нет

Торрент-статистика

Создавать темы 27-Авг-2014 15:29

[Цитировать]

Как мыши кота хоронили
Страна: СССР
Жанр: Рисованный мультфильм
Продолжительность: 00:14:32
Год выпуска: 1969
Русские субтитры: нет
Режиссёр: Михаил Чиаурели
Описание: Мультипликационный фильм по сказке В.А.Жуковского
Доп. информация: «Грузия-фильм»
Оператор: В.Каросанидзе
Сценарий:М.Саралидзе
Композитор:М.Давитошвили
Исходник для рипа предоставлен alenavova
Чистка звука Xfiles
Качество: VHSRip
Формат: AVI
Видео: 640x480 (1.33:1), 25 fps, XviD build 65 ~2100 kbps avg, 0.27 bit/pixel
Аудио: 48 kHz, AC3 Dolby Digital, 1/0 (C) ch, ~192.00 kbps avg
Субтитры: нет

Подробные технические данные

Формат : AVIФормат/Информация : Audio Video InterleaveРазмер файла : 240 МбайтПродолжительность : 14 м.Общий поток : 2303 Кбит/секПрограмма кодирования : VirtualDubModRus 1.5.10.2 (build 2542/release)Правообладатель : Rutracker.orgПримечание : VHSRip by dvdss
ВидеоИдентификатор : 0Формат : MPEG-4 VisualПрофиль формата : Advanced Simple@L5Параметр BVOP формата : 2Параметр QPel формата : НетПараметр GMC формата : Без точки переходаПараметр матрицы формата : ВыборочнаяИдентификатор кодека : XVIDИдентификатор кодека/Подсказка : XviDПродолжительность : 14 м.Битрейт : 2101 Кбит/секШирина : 640 пикс.Высота : 480 пикс.Соотношение сторон : 4:3Частота кадров : 25,000 кадр/секЦветовое пространство : YUVПодвыборка цветности : 4:2:0Битовая глубина : 8 битТип развёртки : ПрогрессивнаяМетод сжатия : С потерямиБит/(Пиксели*Кадры) : 0.274Размер потока : 219 Мбайт (91%)Библиотека кодирования : XviD 65
АудиоИдентификатор : 1Формат : AC-3Формат/Информация : Audio Coding 3Расширение режима : CM (complete main)Идентификатор кодека : 2000Продолжительность : 14 м.Вид битрейта : ПостоянныйБитрейт : 192 Кбит/секКанал(ы) : 1 каналРасположение каналов : Front: CЧастота : 48,0 КГцБитовая глубина : 16 битМетод сжатия : С потерямиРазмер потока : 20,0 Мбайт (8%)Выравнивание : Разделение по промежуткамПродолжительность промежутка : 40 мс. (1,00 видеокадр)Время предзагрузки промежутка : 500 ms

Интересные факты

Советский мультипликационный фильм «Как мыши кота хоронили» был создан в 1969 г. Михаилом Чиаурели по оригинальному сценарию, написанному в соавторстве с Мерабом Саралидзе. Это рисованный короткометражный мультфильм в стиле русских народных сказок, история о коте, мышах, хозяйке подземного дома и о похоронах… Мультфильм получился мрачным, зловещим, очень необычным и совсем не детским. Снят был по сказке В. А. Жуковского, который, в свою очередь, взял сюжет из знаменитого лубка 18 века «Мыши кота погребают» 1760. Считается, что лубок имел сатирическое направление и был нацелен против императора Петра Алексеевича (мнение собирателя Д. А. Равинского и искусствоведа В. В. Стасова), хотя научные аргументы в пользу этой версии приводятся весьма сомнительные. Из западных подобных аналогичных сюжетов можно вспомнить немецкую поэму «Райнике-лис». Интересные стилизованные иллюстрации сделал Георгий Нарбут к книжке «Как мыши кота хоронили», изд. 1910. Любопытно, что кот на лубках иногда изображался не мертвым, а притворяющимся. То у него открыт один глаз, то он зажимает что-то в лапе. Вот эту версию лубка и взял Михаил Чиаурели за основу в своей истории, в аллегорической форме показав похороны кота и дав понять, что «Боги могут и вернуться». Власти сразу увидели в этом прямые аналогии со Сталиным. Произошел громкий скандал, мультфильм хотели запретить и положить «на полку». Но потом возобладало мнение, что безопасней будет не поднимать шума и признать его «безвредным», «сказочным». «Как мыши кота хоронили» не стали закрывать, но постарались сделать так, чтобы все про него скорей забыли. Заговор молчания длился долгие годы, пока в одном из интервью дочка режиссера Софико Чиаурели незадолго до своей смерти не рассказала про эту историю.
Известный лубок начала 18-го века "Как мыши кота хоронили".

Скриншоты

[Профиль] [ЛС]
Кто просматривает тему:

Показать сообщения:    

Текущее время: Сегодня 07:04

Часовой пояс: GMT



Вы не можете начинать темы
Вы не можете отвечать на сообщения
Вы не можете редактировать свои сообщения
Вы не можете удалять свои сообщения
Вы не можете голосовать в опросах
Вы не можете прикреплять файлы к сообщениям
Вы не можете скачивать файлы