Как знать... / How Do You Know? (Джеймс Л. Брукс / James L. Brooks) [2010, США, Драма, мелодрама, комедия, BDRip] Dub

 
Автор Сообщение

painkiller ®

Стаж: 2 года 3 месяца

Сообщений: 582



Награды: Нет

Торрент-статистика

Создавать темы 15-Авг-2014 01:07

[Цитировать]

Как знать... / How Do You Know?- Год выпуска: 2010
Выпущено: США / Columbia Pictures Corporation
Жанр: драма, мелодрама, комедия
Продолжительность: 02:00:45
Перевод: Профессиональный (полное дублирование) BD CEE
Cубтитры: нет-Режиссер:
Джеймс Л. Брукс / James L. Brooks-В ролях:
Риз Уизерспун (Lisa), Пол Радд (George), Джек Николсон (Charles), Оуэн Уилсон (Matty), Кэтрин Хан (Annie), Марк Линн-Бэйкер (Ron), Ленни Венито (Al), Молли Прайс (Coach Sally), Рон МакЛарти (George's Lawyer), Шелли Конн (Terry), Доменик Ломбардоззи (Bullpen Pitcher)-Описание:
Когда все в жизни Лизы начинает идти под откос, она решает съехаться с Мэтти — игроком высшей бейсбольной лиги и самовлюбленным ловеласом. Но прежде, чем их роман превратится в форменный кошмар, Лиза знакомится с Джорджем — добропорядочным бизнесменом, погрязшим в проблемах с законом, женой и отцом, и находящимся на грани нервного срыва. Но именно тогда, когда кажется, что хуже уже не бывает, происходит все самое хорошее.-Релиз группы | IMDB | КиноПоиск |-Качество: BDRip [BDRemux]
Формат: AVI
Видео: 704x384 (1.83:1), 23.976 fps, XviD build 73 ~1335 kbps avg, 0.21 bit/pixel
Аудио: 48 kHz, AC3 Dolby Digital, 3/2 (L,C,R,l,r) + LFE ch, ~384.00 kbps avg
-

Скриншоты

MediaInfo

General
Complete name                            : D:\Kak_znat`_2010_BDRip_by_Dalemake.avi
Format                                   : AVI
Format/Info                              : Audio Video Interleave
File size                                : 1.46 GiB
Duration                                 : 2h 0mn
Overall bit rate                         : 1 729 Kbps
Writing application                      : VirtualDubMod 1.5.10.3 | www.virtualdub-fr.org || (build 2550/release)
Writing library                          : VirtualDubMod build 2550/release
Video
ID                                       : 0
Format                                   : MPEG-4 Visual
Format profile                           : Advanced Simple@L5
Format settings, BVOP                    : 1
Format settings, QPel                    : No
Format settings, GMC                     : No warppoints
Format settings, Matrix                  : Custom
Codec ID                                 : XVID
Codec ID/Hint                            : XviD
Duration                                 : 2h 0mn
Bit rate                                 : 1 336 Kbps
Width                                    : 704 pixels
Height                                   : 384 pixels
Display aspect ratio                     : 1.85:1
Frame rate                               : 23.976 fps
Color space                              : YUV
Chroma subsampling                       : 4:2:0
Bit depth                                : 8 bits
Scan type                                : Progressive
Compression mode                         : Lossy
Bits/(Pixel*Frame)                       : 0.206
Stream size                              : 1.13 GiB (77%)
Writing library                          : XviD 73
Audio
ID                                       : 1
Format                                   : AC-3
Format/Info                              : Audio Coding 3
Mode extension                           : CM (complete main)
Format settings, Endianness              : Big
Codec ID                                 : 2000
Duration                                 : 2h 0mn
Bit rate mode                            : Constant
Bit rate                                 : 384 Kbps
Channel(s)                               : 6 channels
Channel positions                        : Front: L C R, Side: L R, LFE
Sampling rate                            : 48.0 KHz
Bit depth                                : 16 bits
Compression mode                         : Lossy
Stream size                              : 332 MiB (22%)
Alignment                                : Split accross interleaves
Interleave, duration                     : 42 ms (1.00 video frame)
Interleave, preload duration             : 500 ms
-
[Профиль] [ЛС]

Создавать темы 06-Авг-2015 23:13 (спустя 11 месяцев 22 дня)

Топик был перенесен из форума Фильмы до 2014 года в форум Фильмы до 2012 года
sergej644
 

Создавать темы 12-Июн-2016 07:54 (спустя 1 год 9 месяцев)

Топик был перенесен из форума Фильмы 2011 года в форум Фильмы 2010 года
Russian Mafia
 
Кто просматривает тему:

Показать сообщения:    

Текущее время: Сегодня 09:55

Часовой пояс: GMT



Вы не можете начинать темы
Вы не можете отвечать на сообщения
Вы не можете редактировать свои сообщения
Вы не можете удалять свои сообщения
Вы не можете голосовать в опросах
Вы не можете прикреплять файлы к сообщениям
Вы не можете скачивать файлы