Как здоровье, братец лис? (Евгений Михельсон) [1981, Кукольный мультфильм, WEBRip]

 
Автор Сообщение

painkiller ®

Стаж: 2 года 3 месяца

Сообщений: 582



Награды: Нет

Торрент-статистика

Создавать темы 27-Авг-2014 15:29

[Цитировать]

Как здоровье, братец лис?
Страна: СССР
Жанр: Кукольный мультфильм
Продолжительность: 00:09:55
Год выпуска: 1981
Русские субтитры: нет
Режиссёр: Евгений Михельсон
Описание: Мультипликационный фильм для малышей, как звери перевоспитали ленивого лисенка.
Доп. информация:
Оператор:Ю.Малышев
Редактор:М.Данилова
Сценарий:Л.Степанская
Композитор:Н.Халмамедов
Кодирование видео: Lika1603
Реставрация и сихронизация звука: Xfiles
Монтаж: dvdss
Качество: WEBRip
Формат: AVI
Видео: 640x480 (1.33:1), 25 fps, XviD build 50 ~1627 kbps avg, 0.21 bit/pixel
Аудио: 48 kHz, AC3 Dolby Digital, 1/0 (C) ch, ~96.00 kbps avg
Субтитры: нет

Подробные технические данные

Формат : AVIФормат/Информация : Audio Video InterleaveРазмер файла : 123 МбайтПродолжительность : 9 м. 55 с.Общий поток : 1733 Кбит/секПрограмма кодирования : VirtualDubModRus 1.5.10.2 (build 2542/release)Библиотека кодирования : VirtualDubMod build 2542/release
ВидеоИдентификатор : 0Формат : MPEG-4 VisualПрофиль формата : Simple@L3Параметр BVOP формата : НетПараметр QPel формата : НетПараметр GMC формата : Без точки переходаПараметр матрицы формата : Default (H.263)Идентификатор кодека : XVIDИдентификатор кодека/Подсказка : XviDПродолжительность : 9 м. 55 с.Битрейт : 1627 Кбит/секШирина : 640 пикс.Высота : 480 пикс.Соотношение сторон : 4:3Частота кадров : 25,000 кадр/секЦветовое пространство : YUVПодвыборка цветности : 4:2:0Битовая глубина : 8 битТип развёртки : ПрогрессивнаяМетод сжатия : С потерямиБит/(Пиксели*Кадры) : 0.212Размер потока : 116 Мбайт (94%)Библиотека кодирования : XviD 1.2.1 (UTC 2008-12-04)
АудиоИдентификатор : 1Формат : AC-3Формат/Информация : Audio Coding 3Расширение режима : CM (complete main)Идентификатор кодека : 2000Продолжительность : 9 м. 55 с.Вид битрейта : ПостоянныйБитрейт : 96,0 Кбит/секКанал(ы) : 1 каналРасположение каналов : Front: CЧастота : 48,0 КГцБитовая глубина : 16 битМетод сжатия : С потерямиРазмер потока : 6,82 Мбайт (6%)Выравнивание : Разделение по промежуткамПродолжительность промежутка : 40 мс. (1,00 видеокадр)Время предзагрузки промежутка : 500 ms

Скриншоты

[Профиль] [ЛС]
Кто просматривает тему:

Показать сообщения:    

Текущее время: Сегодня 16:52

Часовой пояс: GMT



Вы не можете начинать темы
Вы не можете отвечать на сообщения
Вы не можете редактировать свои сообщения
Вы не можете удалять свои сообщения
Вы не можете голосовать в опросах
Вы не можете прикреплять файлы к сообщениям
Вы не можете скачивать файлы