Как заниматься любовью по-английски / How to Make Love Like an Englishman (2014) BDRip 1080p | IPTV

 
Автор Сообщение

достали все ®

Пол:

Стаж: 1 год 8 месяцев

Сообщений: 6565



Награды: 12 (Подробнее)

Top Releaser 4 (Количество: 1) Mega Seeder 5 (Количество: 1) Mega Releaser 2 (Количество: 1)
Торрент-статистика

Создавать темы 27-Мар-2016 03:00

[Цитировать]

Производство: США, Великобритания / Das Films, Envision Entertainment, Irish DreamTime
Жанр: мелодрама, комедия
Режиссер: Том Вон
Продюсер: Грант Крамер, Кевин Скотт Фрайкс, Ричард Бартон Льюис
Актеры: Пирс Броснан, Сальма Хайек, Джессика Альба, Малкольм МакДауэлл, Дункан Джойнер, Бен МакКензи, Меррин Данги, Фред Меламед, Иван Сергей, Ломбардо Бойяр
Описание:
Сюжет фильма вращается вокруг профессора Кембриджского университета, избравшего в качестве своего девиза изречение уайльдовского лорда Генри из «Портрета Дориана Грея»: «Единственный способ отделаться от искушения — уступить ему». Однажды профессор решает завязать с бесконечным потоком романов и завести семью с молодой американской подружкой — раз уж она внезапно от него забеременела. Однако он и не представлял,

Возраст: 18+ (зрителям, достигшим 18 лет. запрещено для детей)
Рейтинг MPAA: R (лицам до 17 лет обязательно присутствие взрослого)
Дата мировой премьеры: 6 ноября 2014
Дата российской премьеры: 30 июля 2015, «Top Film Distribution»
Релиз от: bluebird
Продолжительность: 01:39:22
Качество: BDRip 1080p
Перевод: Дублированный (звук с iPTV)
Вид субтитров: Вшитые, отключаемые
Язык субтитров: Английский
Видео: AVC/H.264, 1920x804, (2,40:1), 14800 Kbps, 23.976 fps
Аудио: AC3, 6 ch, 384 kbps - Русский
Аудио: AC3, 6 ch, 640 kbps - Английский

MediaInfo:

x264 iNFO
x264 [info]: frame I:1247 Avg QP:13.72 size:222836
x264 [info]: frame P:27399 Avg QP:14.79 size:136215
x264 [info]: frame B:114306 Avg QP:16.05 size: 61656
x264 [info]: consecutive B-frames: 1.5% 2.3% 4.4% 7.9% 10.8% 63.5% 5.6% 0.7% 2.6% 0.8%
encoded 142952 frames, 4.73 fps, 14836.87 kb/s
********************************************************************************
Общее
Уникальный идентификатор : 222353027407479299028697966053028537030 (0xA747A2A7AB32E0B0A9C680028ADC22C6)
Полное имя : How.To.Make.Love.Like.An.Englishman.2014.BDRip.1080p.BLUEBIRD.mkv
Формат : Matroska
Версия формата : Version 4 / Version 2
Размер файла : 11,0 Гбайт
Продолжительность : 1 ч. 39 м.
Общий поток : 15,9 Мбит/сек
Название фильма : How To Make Love Like An Englishman (2014) - Release for BLUEBIRD by lexxblack
Дата кодирования : UTC 2016-03-24 13:07:24
Программа кодирования : mkvmerge v8.9.0 ('Father Daughter') 64bit
Библиотека кодирования : libebml v1.3.3 + libmatroska v1.4.4
Обложка : Yes
Attachments : cover.png / x264_log.txt
Видео
Идентификатор : 1
Формат : AVC
Формат/Информация : Advanced Video Codec
Профиль формата : High@L4.1
Параметр CABAC формата : Да
Параметр ReFrames формата : 5 кадров
Идентификатор кодека : V_MPEG4/ISO/AVC
Продолжительность : 1 ч. 39 м.
Битрейт : 14,8 Мбит/сек
Ширина : 1920 пикселей
Высота : 804 пикселя
Соотношение сторон : 2,40:1
Режим частоты кадров : Постоянный
Частота кадров : 23,976 (24000/1001) кадра/сек
Цветовое пространство : YUV
Субдискретизация насыщенности : 4:2:0
Битовая глубина : 8 бит
Тип развёртки : Прогрессивная
Бит/(Пиксели*Кадры) : 0.401
Размер потока : 10,3 Гбайт (94%)
Заголовок : How To Make Love Like An Englishman (2014) - Release for BLUEBIRD by lexxblack
Библиотека кодирования : x264 core 148 r2638 7599210
Настройки программы : cabac=1 / ref=5 / deblock=1:-3:-3 / analyse=0x3:0x133 / me=umh / subme=10 / psy=1 / psy_rd=0.92:0.00 / mixed_ref=1 / me_range=24 / chroma_me=1 / trellis=2 / 8x8dct=1 / cqm=0 / deadzone=21,11 / fast_pskip=0 / chroma_qp_offset=-2 / threads=12 / lookahead_threads=2 / sliced_threads=0 / nr=0 / decimate=0 / interlaced=0 / bluray_compat=0 / constrained_intra=0 / bframes=9 / b_pyramid=2 / b_adapt=2 / b_bias=0 / direct=3 / weightb=1 / open_gop=0 / weightp=2 / keyint=250 / keyint_min=23 / scenecut=40 / intra_refresh=0 / rc_lookahead=60 / rc=crf / mbtree=0 / crf=16.3 / qcomp=0.65 / qpmin=0 / qpmax=69 / qpstep=4 / vbv_maxrate=62500 / vbv_bufsize=78125 / crf_max=0.0 / nal_hrd=none / filler=0 / ip_ratio=1.30 / pb_ratio=1.20 / aq=3:0.83
Язык : English
Default : Да
Forced : Да
colour_range : Limited
Коэффициенты матрицы : BT.709
Аудио #1
Идентификатор : 2
Формат : AC-3
Формат/Информация : Audio Coding 3
Расширение режима : CM (complete main)
Параметр Endianness формата : Big
Идентификатор кодека : A_AC3
Продолжительность : 1 ч. 39 м.
Вид битрейта : Постоянный
Битрейт : 384 Кбит/сек
Каналы : 6 каналов
Расположение каналов : Front: L C R, Side: L R, LFE
Частота : 48,0 КГц
Частота кадров : 31,250 кадров/сек (1536 spf)
Метод сжатия : С потерями
Размер потока : 273 Мбайт (2%)
Заголовок : AC3 5.1 @ 384 kbps - Dub IPTV
Язык : Russian
Default : Да
Forced : Да
Аудио #2
Идентификатор : 3
Формат : AC-3
Формат/Информация : Audio Coding 3
Расширение режима : CM (complete main)
Параметр Endianness формата : Big
Идентификатор кодека : A_AC3
Продолжительность : 1 ч. 39 м.
Вид битрейта : Постоянный
Битрейт : 640 Кбит/сек
Каналы : 6 каналов
Расположение каналов : Front: L C R, Side: L R, LFE
Частота : 48,0 КГц
Частота кадров : 31,250 кадров/сек (1536 spf)
Метод сжатия : С потерями
Размер потока : 455 Мбайт (4%)
Заголовок : AC3 5.1 @ 640 kbps - Original
Язык : English
Default : Нет
Forced : Нет
Текст #1
Идентификатор : 4
Формат : UTF-8
Идентификатор кодека : S_TEXT/UTF8
Идентификатор кодека/Информация : UTF-8 Plain Text
Продолжительность : 1 ч. 32 м.
Битрейт : 72 бит/сек
Count of elements : 1493
Размер потока : 49,1 Кбайт (0%)
Заголовок : full
Язык : English
Default : Нет
Forced : Нет
Текст #2
Идентификатор : 5
Формат : UTF-8
Идентификатор кодека : S_TEXT/UTF8
Идентификатор кодека/Информация : UTF-8 Plain Text
Продолжительность : 1 ч. 32 м.
Битрейт : 75 бит/сек
Count of elements : 1534
Размер потока : 50,7 Кбайт (0%)
Заголовок : SDH
Язык : English
Default : Нет
Forced : Нет
Меню
00:00:00.000 : en:Chapter 01
00:14:50.723 : en:Chapter 02
00:28:14.651 : en:Chapter 03
00:38:55.792 : en:Chapter 04
00:54:19.006 : en:Chapter 05
01:09:42.553 : en:Chapter 06
01:18:53.938 : en:Chapter 07
01:33:27.852 : en:Chapter 08
Скриншоты:

Время раздачи: 24/7
[Профиль] [ЛС]
Кто просматривает тему:

Показать сообщения:    

Текущее время: Сегодня 16:20

Часовой пояс: GMT



Вы не можете начинать темы
Вы не можете отвечать на сообщения
Вы не можете редактировать свои сообщения
Вы не можете удалять свои сообщения
Вы не можете голосовать в опросах
Вы не можете прикреплять файлы к сообщениям
Вы не можете скачивать файлы