Как заниматься любовью по-английски / How to Make Love Like an Englishman (2014) BDRip 1080p | Чистый звук

 
Автор Сообщение

BOSS ®

Пол:

Стаж: 2 года 1 месяц

Сообщений: 3744

Откуда: ODESSA



Награды: 20 (Подробнее)

Top Releaser 4 (Количество: 1) Mega Seeder 5 (Количество: 1) Top Keeper 2 (Количество: 1)
Торрент-статистика

Создавать темы 26-Фев-2016 20:50

[Цитировать]

Информация о фильме
Название: Как заниматься любовью по-английски
Оригинальное название: How to Make Love Like an Englishman
Год выхода: 2014
Жанр: мелодрама, комедия
Режиссер: Том Вон
В ролях: Пирс Броснан, Сальма Хайек, Джессика Альба, Малкольм МакДауэлл, Дункан Джойнер, Бен МакКензи, Меррин Данги, Фред Меламед, Иван Сергей, Ломбардо Бойяр
О фильме:
Сюжет фильма вращается вокруг профессора Кембриджского университета, избравшего в качестве своего девиза изречение уайльдовского лорда Генри из «Портрета Дориана Грея»: «Единственный способ отделаться от искушения - уступить ему». Но однажды в жизни героя появляется молодая женщина, ради которой он решает пересмотреть личные приоритеты и подавить гедонистические наклонности. И все бы хорошо, вот только сводная сестра новой возлюбленной профессора ждет от него ребенка.

Страна: США
Студия: PalmStar Media, Southpaw Entertainment, Irish DreamTime
Продолжительность: 01:39:22
Перевод: Дублированное [официальное] - Чистый звук
Файл
Кодек: MPEG4 Video (H264)
Качество: BDRip 1080p | Чистый звук
Видео: 1920x802, 9900 Kbps, 23.976fp
Звук:
Аудио #1: AC-3, 6 ch, 640 kbps (Rus) - Чистый звук (сборка 5.1 Wety)
Аудио #2: AC-3, 6 ch, 640 kbps (Eng)
Субтитры: Английские

доп.инфо

Аудио #1
Оригинальная дорожка разложена по каналам, диалоги заменены диалогами из русской дублированной аудиодорожки. Сборка 5.1 by Wety
реклама отсутствует.

Mediainfo

x264 [info]: frame I:1240 Avg QP:14.13 size:234833
x264 [info]: frame P:30320 Avg QP:15.91 size:101102
x264 [info]: frame B:111387 Avg QP:18.15 size: 36080
x264 [info]: consecutive B-frames: 2.1% 5.1% 7.5% 8.9% 11.0% 56.3% 4.4% 0.8% 4.0%
Общее
Уникальный идентификатор : 197255898070787098997851274107287719598 (0x94661AA4FF33433586E519DC58134EAE)
Полное имя : D:FilmEnglishman.2014.BDRip.1080p.mkv
Формат : Matroska
Версия формата : Version 2
Размер файла : 7,76 Гбайт
Продолжительность : 1 ч. 39 м.
Общий поток : 11,2 Мбит/сек
Название фильма : -=WALLEDOL=-
Дата кодирования : UTC 2016-02-26 16:07:56
Программа кодирования : mkvmerge v4.0.0 ('The Stars were mine') сборка от Jun 6 2010 16:18:42
Библиотека кодирования : libebml v1.0.0 + libmatroska v1.0.0
Видео
Идентификатор : 1
Формат : AVC
Формат/Информация : Advanced Video Codec
Профиль формата : High@L4.1
Параметр CABAC формата : Да
Параметр ReFrames формата : 5 кадров
Идентификатор кодека : V_MPEG4/ISO/AVC
Продолжительность : 1 ч. 39 м.
Битрейт : 9900 Кбит/сек
Ширина : 1920 пикселей
Высота : 802 пикселя
Соотношение сторон : 2,40:1
Режим частоты кадров : Постоянный
Частота кадров : 23,976 (23976/1000) кадра/сек
Цветовое пространство : YUV
Субдискретизация насыщенности : 4:2:0
Битовая глубина : 8 бит
Тип развёртки : Прогрессивная
Бит/(Пиксели*Кадры) : 0.268
Размер потока : 6,72 Гбайт (87%)
Заголовок : How to Make Love Like an Englishman.2014.BDRip.1080p
Библиотека кодирования : x264 core 148 r2665 a01e339
Настройки программы : cabac=1 / ref=5 / deblock=1:-3:-3 / analyse=0x3:0x133 / me=umh / subme=10 / psy=1 / psy_rd=1.00:0.15 / mixed_ref=1 / me_range=32 / chroma_me=1 / trellis=2 / 8x8dct=1 / cqm=0 / deadzone=21,11 / fast_pskip=0 / chroma_qp_offset=-3 / threads=6 / lookahead_threads=1 / sliced_threads=0 / nr=0 / decimate=1 / interlaced=0 / bluray_compat=0 / constrained_intra=0 / bframes=8 / b_pyramid=2 / b_adapt=2 / b_bias=0 / direct=3 / weightb=1 / open_gop=0 / weightp=2 / keyint=240 / keyint_min=23 / scenecut=40 / intra_refresh=0 / rc=2pass / mbtree=0 / bitrate=9900 / ratetol=1.0 / qcomp=0.60 / qpmin=0 / qpmax=69 / qpstep=4 / cplxblur=20.0 / qblur=0.5 / ip_ratio=1.40 / pb_ratio=1.30 / aq=1:0.70
Язык : English
Default : Нет
Forced : Нет
Аудио #1
Идентификатор : 2
Формат : AC-3
Формат/Информация : Audio Coding 3
Расширение режима : CM (complete main)
Параметр Endianness формата : Big
Идентификатор кодека : A_AC3
Продолжительность : 1 ч. 39 м.
Вид битрейта : Постоянный
Битрейт : 640 Кбит/сек
Каналы : 6 каналов
Расположение каналов : Front: L C R, Side: L R, LFE
Частота : 48,0 КГц
Частота кадров : 31,250 кадров/сек (1536 spf)
Метод сжатия : С потерями
Размер потока : 455 Мбайт (6%)
Заголовок : DUB by Wety
Язык : Russian
Default : Да
Forced : Да
Аудио #2
Идентификатор : 3
Формат : AC-3
Формат/Информация : Audio Coding 3
Расширение режима : CM (complete main)
Параметр Endianness формата : Big
Идентификатор кодека : A_AC3
Продолжительность : 1 ч. 39 м.
Вид битрейта : Постоянный
Битрейт : 640 Кбит/сек
Каналы : 6 каналов
Расположение каналов : Front: L C R, Side: L R, LFE
Частота : 48,0 КГц
Частота кадров : 31,250 кадров/сек (1536 spf)
Метод сжатия : С потерями
Размер потока : 455 Мбайт (6%)
Язык : English
Default : Нет
Forced : Нет
Текст
Идентификатор : 4
Формат : UTF-8
Идентификатор кодека : S_TEXT/UTF8
Идентификатор кодека/Информация : UTF-8 Plain Text
Заголовок : Full
Язык : English
Default : Да
Forced : Нет
Меню
00:00:00.000 : en:Chapter 01
00:14:50.723 : en:Chapter 02
00:28:14.651 : en:Chapter 03
00:38:55.791 : en:Chapter 04
00:54:19.005 : en:Chapter 05
01:09:42.553 : en:Chapter 06
01:18:53.937 : en:Chapter 07
01:33:27.852 : en:Chapter 08

Скриншоты




[Профиль] [ЛС]
Кто просматривает тему:

Показать сообщения:    

Текущее время: Сегодня 11:53

Часовой пояс: GMT



Вы не можете начинать темы
Вы не можете отвечать на сообщения
Вы не можете редактировать свои сообщения
Вы не можете удалять свои сообщения
Вы не можете голосовать в опросах
Вы не можете прикреплять файлы к сообщениям
Вы не можете скачивать файлы