Как заниматься любовью по-английски / How to Make Love Like an Englishman (2014) BDRemux | Чистый звук

 
Автор Сообщение

BOSS ®

Пол:

Стаж: 2 года 1 месяц

Сообщений: 3718

Откуда: ODESSA



Награды: 20 (Подробнее)

Mega Releaser 2 (Количество: 1) Mega Seeder 4 (Количество: 1) Top Releaser 3 (Количество: 1)
Торрент-статистика

Создавать темы 26-Фев-2016 20:49

[Цитировать]

Информация о фильме
Название: Как заниматься любовью по-английски
Оригинальное название: How to Make Love Like an Englishman
Год выхода: 2014
Жанр: мелодрама, комедия
Режиссер: Том Вон
В ролях: Пирс Броснан, Сальма Хайек, Джессика Альба, Малкольм МакДауэлл, Дункан Джойнер, Бен МакКензи, Меррин Данги, Фред Меламед, Иван Сергей, Ломбардо Бойяр
О фильме:
Сюжет фильма вращается вокруг профессора Кембриджского университета, избравшего в качестве своего девиза изречение уайльдовского лорда Генри из «Портрета Дориана Грея»: «Единственный способ отделаться от искушения - уступить ему». Но однажды в жизни героя появляется молодая женщина, ради которой он решает пересмотреть личные приоритеты и подавить гедонистические наклонности. И все бы хорошо, вот только сводная сестра новой возлюбленной профессора ждет от него ребенка.

Страна: США
Студия: PalmStar Media, Southpaw Entertainment, Irish DreamTime
Продолжительность: 01:39:22
Перевод: Дублированное [официальное] - Чистый звук
Файл
Кодек: MPEG4 Video (H264)
Качество: BDRemux | Чистый звук
Видео: 1920x1080, 30047 Kbps, 23.976fp
Звук:
Аудио #1: AC-3, 6 ch, 640 kbps (Rus) - Чистый звук (сборка 5.1 Wety)
Аудио #2: AC-3, 2 ch, 128 kbps (Rus) - Чистый звук
Аудио #3: TrueHD / 5.1 / 48 kHz / 3861 kbps (AC3 Core: 5.1 / 48 kHz / 640 kbps) (Eng)
Аудио #4: AC-3, 6 ch, 640 kbps (Eng)
Субтитры: Английские

доп.инфо

Аудио #1
Оригинальная дорожка разложена по каналам, диалоги заменены диалогами из русской дублированной аудиодорожки. Сборка 5.1 by Wety
реклама отсутствует.

Mediainfo

Общее
Уникальный идентификатор : 229462999202872827946175521965991782053 (0xACA0F75441273F34A22A525A479FE6A5)
Полное имя : D:FilmEnglishman.2014.BDRemux.mkv
Формат : Matroska
Версия формата : Version 2
Размер файла : 24,3 Гбайт
Продолжительность : 1 ч. 39 м.
Режим общего битрейта : Переменный
Общий поток : 35,0 Мбит/сек
Название фильма : -=WALLEDOL=-
Дата кодирования : UTC 2016-02-26 14:41:26
Программа кодирования : mkvmerge v4.0.0 ('The Stars were mine') сборка от Jun 6 2010 16:18:42
Библиотека кодирования : libebml v1.0.0 + libmatroska v1.0.0
Видео
Идентификатор : 1
Формат : AVC
Формат/Информация : Advanced Video Codec
Профиль формата : High@L4.1
Параметр CABAC формата : Да
Параметр ReFrames формата : 4 кадра
Идентификатор кодека : V_MPEG4/ISO/AVC
Продолжительность : 1 ч. 39 м.
Вид битрейта : Переменный
Максимальный битрейт : 35,0 Мбит/сек
Ширина : 1920 пикселей
Высота : 1080 пикселей
Соотношение сторон : 16:9
Режим частоты кадров : Постоянный
Частота кадров : 23,976 (24000/1001) кадра/сек
Стандарт вещания : NTSC
Цветовое пространство : YUV
Субдискретизация насыщенности : 4:2:0
Битовая глубина : 8 бит
Тип развёртки : Прогрессивная
Заголовок : How.to.Make.Love.Like.an.Englishman.2014.BDRemux
Язык : English
Default : Нет
Forced : Нет
Цветовой диапазон : Limited
Основные цвета : BT.709
Характеристики трансфера : BT.709
Коэффициенты матрицы : BT.709
Аудио #1
Идентификатор : 2
Формат : AC-3
Формат/Информация : Audio Coding 3
Расширение режима : CM (complete main)
Параметр Endianness формата : Big
Идентификатор кодека : A_AC3
Продолжительность : 1 ч. 39 м.
Вид битрейта : Постоянный
Битрейт : 640 Кбит/сек
Каналы : 6 каналов
Расположение каналов : Front: L C R, Side: L R, LFE
Частота : 48,0 КГц
Частота кадров : 31,250 кадров/сек (1536 spf)
Метод сжатия : С потерями
Размер потока : 455 Мбайт (2%)
Заголовок : DUB by Wety
Язык : Russian
Default : Да
Forced : Да
Аудио #2
Идентификатор : 3
Формат : AC-3
Формат/Информация : Audio Coding 3
Расширение режима : CM (complete main)
Параметр Endianness формата : Big
Идентификатор кодека : A_AC3
Продолжительность : 1 ч. 39 м.
Вид битрейта : Постоянный
Битрейт : 128 Кбит/сек
Каналы : 2 канала
Расположение каналов : Front: L R
Частота : 48,0 КГц
Частота кадров : 31,250 кадров/сек (1536 spf)
Метод сжатия : С потерями
Размер потока : 91,0 Мбайт (0%)
Заголовок : DUB Line
Язык : Russian
Default : Нет
Forced : Нет
Аудио #3
Идентификатор : 4
Формат : TrueHD
Идентификатор кодека : A_TRUEHD
Продолжительность : 1 ч. 39 м.
Вид битрейта : Переменный
Максимальный битрейт : 3861 Кбит/сек
Каналы : 6 каналов
Расположение каналов : Front: L C R, Side: L R, LFE
Частота : 48,0 КГц
Частота кадров : 1200,000 кадров/сек (40 spf)
Метод сжатия : Без потерь
Заголовок : TrueHD
Язык : English
Default : Нет
Forced : Нет
Аудио #4
Идентификатор : 5
Формат : AC-3
Формат/Информация : Audio Coding 3
Расширение режима : CM (complete main)
Параметр Endianness формата : Big
Идентификатор кодека : A_AC3
Продолжительность : 1 ч. 39 м.
Вид битрейта : Постоянный
Битрейт : 640 Кбит/сек
Каналы : 6 каналов
Расположение каналов : Front: L C R, Side: L R, LFE
Частота : 48,0 КГц
Частота кадров : 31,250 кадров/сек (1536 spf)
Метод сжатия : С потерями
Размер потока : 455 Мбайт (2%)
Заголовок : AC_3
Язык : English
Default : Нет
Forced : Нет
Текст
Идентификатор : 6
Формат : UTF-8
Идентификатор кодека : S_TEXT/UTF8
Идентификатор кодека/Информация : UTF-8 Plain Text
Заголовок : Full
Язык : English
Default : Нет
Forced : Нет
Меню
00:00:00.000 : en:Chapter 01
00:14:50.723 : en:Chapter 02
00:28:14.651 : en:Chapter 03
00:38:55.791 : en:Chapter 04
00:54:19.005 : en:Chapter 05
01:09:42.553 : en:Chapter 06
01:18:53.937 : en:Chapter 07
01:33:27.852 : en:Chapter 08

Скриншоты

[Профиль] [ЛС]
Кто просматривает тему:

Показать сообщения:    

Текущее время: Сегодня 20:03

Часовой пояс: GMT



Вы не можете начинать темы
Вы не можете отвечать на сообщения
Вы не можете редактировать свои сообщения
Вы не можете удалять свои сообщения
Вы не можете голосовать в опросах
Вы не можете прикреплять файлы к сообщениям
Вы не можете скачивать файлы