Как достойно встретить смерть / A Beginner\'s Guide to Endings (Джонатан Собол / Jonathan Sobol) [2010, США, Канада, комедийная драма, DVDRip] VO (Петр Титов) + Original Eng

 
Автор Сообщение

TorrentFilm ®

Пол:

Стаж: 2 года

Сообщений: 7741



Награды: Нет

Торрент-статистика

Создавать темы 15-Авг-2015 00:07

[Цитировать]

Как достойно встретить смерть / A Beginner's Guide to Endings
Страна: США, Канада
Жанр: комедийная драма
Год выпуска: 2010
Продолжительность: 01:32:13
Перевод: Одноголосый любительский (Петр Титов)
Cубтитры: нет
Оригинальная аудиодорожка: английский
Режиссер: Джонатан Собол / Jonathan Sobol
В ролях: Триша Хелфер, Дж.К. Симмонс, Харви Кейтель, Скотт Каан, Паоло Костанзо, Венди Крюсон, Джейсон Джонс, Джаред Кисо,
Описание: Однажды трое братьев совершенно случайно узнают о том что им осталось жить всего несколько дней, и после этого они решают исправить все те ошибки, которые допустили в этой жизни.
Сэмпл: https://www.sendspace.com/file/birqcl
Качество видео: DVDRip
Формат видео: AVI
Видео: Xvid 720x404 (229:129) 23.976fps, 1 507 Kbps
Аудио: MP3, 441000 Hz, 192 Kbps
Аудио 2: Dolby AC3 48000Hz 6ch 448kbps (Оригинал)

MediaInfo

General
Complete name : C:\Users\piter\Desktop\умереть.avi
Format : AVI
Format/Info : Audio Video Interleave
File size : 1.39 GiB
Duration : 1h 32mn
Overall bit rate : 2 161 Kbps
Movie name : MIRCrew by robbyrs
Writing application : VirtualDubMod 1.5.10.2 (build 2540/release)
Writing library : VirtualDubMod build 2540/release
Video
ID : 0
Format : MPEG-4 Visual
Format profile : Simple@L3
Format settings, BVOP : No
Format settings, QPel : No
Format settings, GMC : No warppoints
Format settings, Matrix : Default (H.263)
Codec ID : XVID
Codec ID/Hint : XviD
Duration : 1h 32mn
Bit rate : 1 507 Kbps
Width : 720 pixels
Height : 404 pixels
Display aspect ratio : 16:9
Frame rate : 23.976 fps
Color space : YUV
Chroma subsampling : 4:2:0
Bit depth : 8 bits
Scan type : Progressive
Compression mode : Lossy
Bits/(Pixel*Frame) : 0.216
Stream size : 994 MiB (70%)
Writing library : XviD 64
Audio #1
ID : 1
Format : MPEG Audio
Format version : Version 1
Format profile : Layer 3
Codec ID : 55
Codec ID/Hint : MP3
Duration : 1h 32mn
Bit rate mode : Constant
Bit rate : 192 Kbps
Channel(s) : 2 channels
Sampling rate : 44.1 KHz
Compression mode : Lossy
Stream size : 127 MiB (9%)
Alignment : Split accross interleaves
Interleave, duration : 42 ms (1.00 video frame)
Interleave, preload duration : 500 ms
Audio #2
ID : 2
Format : AC-3
Format/Info : Audio Coding 3
Mode extension : CM (complete main)
Format settings, Endianness : Big
Codec ID : 2000
Duration : 1h 32mn
Bit rate mode : Constant
Bit rate : 448 Kbps
Channel(s) : 6 channels
Channel positions : Front: L C R, Side: L R, LFE
Sampling rate : 48.0 KHz
Bit depth : 16 bits
Compression mode : Lossy
Stream size : 296 MiB (21%)
Alignment : Split accross interleaves
Interleave, duration : 42 ms (1.00 video frame)
Interleave, preload duration : 500 ms

Скриншот c названием фильма

Скриншоты



[Профиль] [ЛС]

Создавать темы 12-Июн-2016 07:53 (спустя 9 месяцев 28 дней)

Топик был перенесен из форума Фильмы 2011 года в форум Фильмы 2010 года
Russian Mafia
 
Кто просматривает тему:

Показать сообщения:    

Текущее время: Сегодня 20:59

Часовой пояс: GMT



Вы не можете начинать темы
Вы не можете отвечать на сообщения
Вы не можете редактировать свои сообщения
Вы не можете удалять свои сообщения
Вы не можете голосовать в опросах
Вы не можете прикреплять файлы к сообщениям
Вы не можете скачивать файлы