Как долго я тебя ждала [01-20 из 20] (2019) WEBRip

 
Author Message

Pensioner ®

Longevity: 2 years 6 months

Posts: 510

Location: Казахстан



: 5 ()

Mega Seeder 1 (1) За внесенный вклад в развитие сайта (1) Mega Seeder 2 (1)
Торрент-статистика

Post 02-Apr-2019 10:40

[Quote]

Информация о фильме
Оригинальное название: Как долго я тебя ждала
Год выхода: 2019
Жанр: Мелодрама
Режиссер: Валерий Ибрагимов
В ролях: Евгения Нохрина, Дмитрий Блажко, Александр Мохов, Алексей Зубков, Олеся Жураковская, Елена Хижная, Станислав Щекин, Лев Сомов
О фильме:
Жанна и Роман с детства любят друг друга, но их мечты о свадьбе рушатся, когда парня обвиняют в убийстве лучшей подруги Жанны - Кати. Его подставляет отец Жанны – майор милиции Валерий, которому не нужен несостоятельный зять. Узнав, что Романа хотят убить на зоне, Жанна идет на сделку с местным бизнесменом, криминальным авторитетом Славой Карповым. Она соглашается на фиктивный брак с самолюбивым Славой и в обмен на это Рома получает защиту и особые условия содержания в тюрьме. Узнав о свадьбе Жанны, парень в отместку женится на другой. Проходят годы. Роман и Жанна учатся жить без любви, но судьба вновь сводит их…Только теперь хладнокровный, циничный Рома искренне считает бывшую невесту предательницей, не подозревая, что все эти годы она его ждала…
Страна: Украина
Студия: Киевтелефильм
Продолжительность: 20 х ~ 00:49:00
Перевод: Не требуется
Файл
Кодек: XviD
Качество: WEBRip
Видео: XviD, 1600 Кбит/с, 720x400, 25 кадр/с
Звук: AC3, 2 ch, 192 Кбит/с
Субтитры: Нет
Доп. ин.-ция

Внимание! Раздача ведётся путём добавления новых серий

Раздача ведётся путём добавления новых серий, при каждом добавлении создаётся новый торрент. Чтобы начать докачку новой серии, пользователям необходимо сделать следующее:
- Остановить скачивание.
- Удалить старый торрент у себя из клиента (старые серии удалять не надо).
- Скачать новый торрент и запустить его у себя в клиенте вместо старого, при этом указать клиенту путь в старую папку куда и должно происходить скачивание новых серий.
Ваш клиент при этом должен произвести хеширование (проверку) старой папки (если не производит сам - помогите ему сделать это), и будет докачивать только те серии которых у вас ещё нет. Старые серии при этом не удаляются, а продолжают раздаваться!

MediaInfo:

General
Complete name : C:\00\6354\Как долго я тебя ждала .(2019).WEB-DLRip\02. Как долго я тебя ждала ..2019. WEB-DLRip. Files-x.avi
Format : AVI
Format/Info : Audio Video Interleave
File size : 615 MiB
Duration : 47mn 42s
Overall bit rate : 1 802 Kbps
Writing application : VirtualDubMod 1.5.10.3 | www.virtualdub-fr.org || (build 2550/release)
Writing library : VirtualDubMod build 2550/release
Video
ID : 0
Format : MPEG-4 Visual
Format profile : Advanced Simple@L5
Format settings, BVOP : 1
Format settings, QPel : No
Format settings, GMC : No warppoints
Format settings, Matrix : Custom
Codec ID : XVID
Codec ID/Hint : XviD
Duration : 47mn 42s
Bit rate : 1 600 Kbps
Width : 720 pixels
Height : 400 pixels
Display aspect ratio : 16:9
Frame rate : 25.000 fps
Color space : YUV
Chroma subsampling : 4:2:0
Bit depth : 8 bits
Scan type : Progressive
Compression mode : Lossy
Bits/(Pixel*Frame) : 0.222
Stream size : 546 MiB (89%)
Writing library : XviD 73
Audio
ID : 1
Format : AC-3
Format/Info : Audio Coding 3
Mode extension : CM (complete main)
Codec ID : 2000
Duration : 47mn 42s
Bit rate mode : Constant
Bit rate : 192 Kbps
Channel(s) : 2 channels
Channel positions : Front: L R
Sampling rate : 48.0 KHz
Bit depth : 16 bits
Compression mode : Lossy
Stream size : 65.5 MiB (11%)
Alignment : Split accross interleaves
Interleave, duration : 40 ms (1.00 video frame)
Interleave, preload duration : 500 ms

Скриншоты


Добавлены 1-20 серии.


Last edited by Pensioner on 2019-04-17 15:06; edited 5 times in total
[Profile] [PM]

Pensioner ®

Longevity: 2 years 6 months

Posts: 510

Location: Казахстан



: 5 ()

Mega Seeder 2 (1) Mega Seeder 3 (1) За внесенный вклад в развитие сайта (1)
Торрент-статистика

Post 17-Apr-2019 15:07 (after 15 days)

[Quote]

Добавлены 17-20 серии.
[Profile] [PM]
Кто просматривает тему:

Display posts from previous:    

The time now is: Today 11:39

All times are GMT



You cannot post new topics in this forum
You cannot reply to topics in this forum
You cannot edit your posts in this forum
You cannot delete your posts in this forum
You cannot vote in polls in this forum
You cannot attach files in this forum
You cannot download files in this forum