Как дед великое равновесие нарушил (Владимир Данилевич) [1976, Кукольный мультфильм, DVDRip]

 
Автор Сообщение

painkiller ®

Стаж: 2 года 3 месяца

Сообщений: 582



Награды: Нет

Торрент-статистика

Создавать темы 27-Авг-2014 15:28

[Цитировать]

Как дед великое равновесие нарушил
Страна: CCCР
Жанр: Кукольный мультфильм
Продолжительность: 00:08:03
Год выпуска: 1976
Русские субтитры: нет
Режиссёр: Владимир Данилевич
Описание: По мотивам познавательной сказки В.Бианки "Сова" - о единстве природы. В этом м-ф деревенский мужичок оскорбил сову, она обиделась и улетела. И за наглыми полевыми мышами стало некому присматривать. В итоге они съели все полевые посевы, и мужику пришлось туго....
Доп. информация: Текст Читает: Л.Дуров
Оператор:В.Сидоров
Композитор:Е.Ботяров
Редактор:Н.Абрамова
Качество: DVDRip
Формат: AVI
Видео: 704x528 (1.33:1), 25 fps, XviD build 65 ~2045 kbps avg, 0.22 bit/pixel
Аудио: 48 kHz, AC3 Dolby Digital, 2/0 (L,R) ch, ~192.00 kbps avg
Субтитры: нет

Подробные технические данные

Формат : AVIФормат/Информация : Audio Video InterleaveРазмер файла : 130 МбайтПродолжительность : 8 м. 3 с.Общий поток : 2248 Кбит/секПрограмма кодирования : VirtualDubModRus 1.5.10.2 (build 2542/release)Правообладатель : Rutracker.orgПримечание : DVDRip by dvdss
ВидеоИдентификатор : 0Формат : MPEG-4 VisualПрофиль формата : Advanced Simple@L5Параметр BVOP формата : 2Параметр QPel формата : НетПараметр GMC формата : Без точки переходаПараметр матрицы формата : ВыборочнаяИдентификатор кодека : XVIDИдентификатор кодека/Подсказка : XviDПродолжительность : 8 м. 3 с.Битрейт : 2046 Кбит/секШирина : 704 пикс.Высота : 528 пикс.Соотношение сторон : 4:3Частота кадров : 25,000 кадр/секЦветовое пространство : YUVПодвыборка цветности : 4:2:0Битовая глубина : 8 битТип развёртки : ПрогрессивнаяМетод сжатия : С потерямиБит/(Пиксели*Кадры) : 0.220Размер потока : 118 Мбайт (91%)Библиотека кодирования : XviD 65
АудиоИдентификатор : 1Формат : AC-3Формат/Информация : Audio Coding 3Расширение режима : CM (complete main)Идентификатор кодека : 2000Продолжительность : 8 м. 3 с.Вид битрейта : ПостоянныйБитрейт : 192 Кбит/секКанал(ы) : 2 канала(ов)Расположение каналов : Front: L RЧастота : 48,0 КГцБитовая глубина : 16 битМетод сжатия : С потерямиРазмер потока : 11,1 Мбайт (9%)Выравнивание : Соединение по промежуткамПродолжительность промежутка : 40 мс. (1,00 видеокадр)Время предзагрузки промежутка : 512 ms

Скриншоты

[Профиль] [ЛС]
Кто просматривает тему:

Показать сообщения:    

Текущее время: Сегодня 01:18

Часовой пояс: GMT



Вы не можете начинать темы
Вы не можете отвечать на сообщения
Вы не можете редактировать свои сообщения
Вы не можете удалять свои сообщения
Вы не можете голосовать в опросах
Вы не можете прикреплять файлы к сообщениям
Вы не можете скачивать файлы