Как выйти замуж за 3 дня / Високосный год / Leap Year (Ананд Такер / Anand Tucker) [2010, США, Ирландия, мелодрама, комедия, HDRip] 2x AVO (Сербин, Иванов)

 
Автор Сообщение

TorrentFilm ®

Пол:

Стаж: 1 год 11 месяцев

Сообщений: 7741



Награды: Нет

Торрент-статистика

Создавать темы 27-Июн-2015 00:10

[Цитировать]

Как выйти замуж за 3 дня / Високосный год / Leap Year Страна: США, Ирландия
Жанр: мелодрама, комедия
Год выпуска: 2010
Продолжительность: 01:40:16
Перевод 1: Авторский (одноголосый закадровый) Юрий Сербин
Перевод 2: Авторский (одноголосый закадровый) Михаил Иванов
Cубтитры: нет
Режиссер: Ананд Такер / Anand Tucker
В ролях: Эми Адамс, Мэттью Гуд, Адам Скотт, Джон Литгоу, Ноэль О’Донован, Тони Рор, Пэт Лаффан, Алан Девлин, Йен МакЭлхинни, Доминик МакЭллигот
Описание: В англоязычных странах есть традиция — 29 февраля женщина может сделать предложение мужчине, и он не имеет права отказаться. И вот чопорная дама едет в Дублин, чтобы именно в этот день попробовать сделать предложение своему бойфренду.
Но погода меняет её планы, и чтобы осуществить задуманное, ей приходится прибегнуть к помощи ворчливого ирландца — хозяина гостиницы. Вместе с ним героиня вынуждена путешествовать через всю страну, чтобы успеть вовремя сделать предложение.

Качество видео: HDRip
Формат видео: AVI
Видео кодек: XviD
Аудио кодек: AC3
Видео: 720x304 (2.37:1), 23.976 fps, XviD build 62 ~2278 kbps avg, 0.43 bit/pixel
Аудио#1: 48 kHz, AC3 Dolby Digital, 3/2 (L,C,R,l,r) + LFE ch, ~384 kbps Сербин
Аудио#2: 48 kHz, AC3 Dolby Digital, 3/2 (L,C,R,l,r) + LFE ch, ~448 kbps Иванов

Доп.инфо

за видеоряд спасибо Ildarec014
за перевод Сербина спасибо пользователям форумов Е180: denus, Valen, zeleniy, masta, ultrajeka, kRIPtograf, luka69, Водолей, ylnian1986, chernick, Petro0999, chontvari и HDTracker: нетработе, Tagansky, Role
за перевод Иванова спасибо пользователям форума Е180: zeleniy, Daniel Rock, Nadoelo, Марлон, Guyver, denis_mgn_1987, luka69, karantin66, ultrajeka, denus, d-i-mm, Valen, Диммон, pupsik197, masta, carnivale, Водолей

MediaInfo

Полное имя : Как выйти замуж за 3 дня.avi
Формат : AVI
Формат/Информация : Audio Video Interleave
Профиль формата : OpenDML
Размер файла : 2,18 Гбайт
Продолжительность : 1 ч. 40 м.
Общий поток : 3118 Кбит/сек
Программа кодирования : VirtualDubMod 1.5.10.2 (build 2540/release)
Видео
Идентификатор : 0
Формат : MPEG-4 Visual
Профиль формата : Advanced Simple@L5
Параметр BVOP формата : 1
Параметр QPel формата : Нет
Параметр GMC формата : Без точки перехода
Параметр матрицы формата : Выборочная
Идентификатор кодека : XVID
Идентификатор кодека/Подсказка : XviD
Продолжительность : 1 ч. 40 м.
Битрейт : 2268 Кбит/сек
Ширина : 720 пикселей
Высота : 304 пикселя
Соотношение сторон : 2,35:1
Частота кадров : 23,976 кадра/сек
Цветовое пространство : YUV
Субдискретизация насыщенности : 4:2:0
Битовая глубина : 8 бит
Тип развёртки : Прогрессивная
Метод сжатия : С потерями
Бит/(Пиксели*Кадры) : 0.432
Размер потока : 1,59 Гбайт (73%)
Библиотека кодирования : XviD 62
Аудио #1
Идентификатор : 1
Формат : AC-3
Формат/Информация : Audio Coding 3
Расширение режима : CM (complete main)
Параметр Endianness формата : Big
Идентификатор кодека : 2000
Продолжительность : 1 ч. 40 м.
Вид битрейта : Постоянный
Битрейт : 384 Кбит/сек
Каналы : 6 каналов
Расположение каналов : Front: L C R, Side: L R, LFE
Частота : 48,0 КГц
Битовая глубина : 16 бит
Метод сжатия : С потерями
Размер потока : 275 Мбайт (12%)
Выравнивание : Разделение по промежуткам
Продолжительность промежутка : 42 мс. (1,00 видеокадр)
Время предзагрузки промежутка : 500 мс.
Заголовок : Сербин
Аудио #2
Идентификатор : 2
Формат : AC-3
Формат/Информация : Audio Coding 3
Расширение режима : CM (complete main)
Параметр Endianness формата : Big
Идентификатор кодека : 2000
Продолжительность : 1 ч. 40 м.
Вид битрейта : Постоянный
Битрейт : 448 Кбит/сек
Каналы : 6 каналов
Расположение каналов : Front: L C R, Side: L R, LFE
Частота : 48,0 КГц
Битовая глубина : 16 бит
Метод сжатия : С потерями
Размер потока : 321 Мбайт (14%)
Выравнивание : Разделение по промежуткам
Продолжительность промежутка : 42 мс. (1,00 видеокадр)
Время предзагрузки промежутка : 500 мс.
Заголовок : Иванов

Скриншоты

[Профиль] [ЛС]

Создавать темы 06-Авг-2015 22:29 (спустя 1 месяц 9 дней)

Топик был перенесен из форума Фильмы до 2014 года в форум Фильмы до 2012 года
sergej644
 

Создавать темы 12-Июн-2016 07:54 (спустя 11 месяцев 15 дней)

Топик был перенесен из форума Фильмы 2011 года в форум Фильмы 2010 года
Russian Mafia
 
Кто просматривает тему:

Показать сообщения:    

Текущее время: Сегодня 18:22

Часовой пояс: GMT



Вы не можете начинать темы
Вы не можете отвечать на сообщения
Вы не можете редактировать свои сообщения
Вы не можете удалять свои сообщения
Вы не можете голосовать в опросах
Вы не можете прикреплять файлы к сообщениям
Вы не можете скачивать файлы