Как выйти замуж за 3 дня / Leap Year (2010) BDRip 720p | D,P2,A,L1

 
Автор Сообщение

sergej644 ®

Пол:

Стаж: 4 года 11 месяцев

Сообщений: 6044

Откуда: Soviet Union



Награды: Нет

Торрент-статистика

Создавать темы 25-Июн-2015 22:21

[Цитировать]

Как выйти замуж за 3 дня / Leap Year
«На что вы готовы ради любви?»
Русское название: Как выйти замуж за 3 дня
Оригинальное название: Leap Year
Год выпуска: 2010
Жанр: мелодрама, комедия
Выпущено: США, Ирландия
Режиссер: Ананд Такер
В ролях: Эми Адамс , Мэттью Гуд , Адам Скотт , Джон Литгоу , Ноэль О’Донован , Тони Рор , Пэт Лаффан , Алан Девлин , Йен МакЭлхинни , Доминик МакЭллигот , Марк О’Ригэн , Мэгги МакКарти
Перевод: Дублированный, Профессиональный (двухголосый), Авторский (одноголосый), Любительский (одноголосый)

Сюжет фильма:
В англоязычных странах есть традиция - 29 февраля женщина может сделать предложение мужчине, и он не имеет права отказаться. И вот чопорная дама едет в Дублин, чтобы именно в этот день попробовать сделать предложение своему бойфренду.
Но погода меняет её планы, и чтобы осуществить задуманное, ей приходится прибегнуть к помощи ворчливого ирландца - хозяина гостиницы. Вместе с ним героиня вынуждена путешествовать через всю страну, чтобы успеть вовремя сделать предложение.

Качество: BDRip 720p
Формат: AVC (библиотека кодирования x.264)
Контейнер (Расширение): MKV
Видео: 1280x534, 3568 Кбит/сек, 23,976 кадр/сек, 0,210 Бит/[Пиксели*Кадры]
Аудио №1: русский / AC3 / 5.1 / 48 kHz / 384 kbps / 16 bit |Дублированный, R5|
Аудио №2: русский / AC3 / 5.1 / 48 kHz / 448 kbps / 16 bit |Двухголосый закадровый, R2|
Аудио №3: русский / AC3 / 5.1 / 48 kHz / 640 kbps / 16 bit |Авторский, Юрий Сербин|
Аудио №4: русский / AC3 / 5.1 / 48 kHz / 640 kbps / 16 bit |Авторский, Михаил Иванов|
Аудио №5: русский / AC3 / 2.0 / 48 kHz / 192 kbps / 16 bit |Любительский одноголосый, R1shpil|
Аудио №6: английский / AC3 / 5.1 / 48 kHz / 640 kbps /
Субтитры: русские, английские
Навигация по главам(Чаптеры): есть
Продолжительность: 01:40:16

MediaInfo

Format : Matroska
Format version : Version 2
File size : 4.56 GiB
Duration : 1h 40mn
Overall bit rate : 6 515 Kbps
Movie name : Leap Year.(2010).BDRip.720p.[denis100]
Encoded date : UTC 2015-06-25 19:30:09
Writing application : mkvmerge v5.8.0 ('No Sleep / Pillow') built on Sep 2 2012 15:37:04
Writing library : libebml v1.2.3 + libmatroska v1.3.0
Video
ID : 1
Format : AVC
Format/Info : Advanced Video Codec
Format profile : High@L4.1
Format settings, CABAC : Yes
Format settings, ReFrames : 11 frames
Codec ID : V_MPEG4/ISO/AVC
Duration : 1h 40mn
Bit rate : 3 441 Kbps
Width : 1 280 pixels
Height : 534 pixels
Display aspect ratio : 2.40:1
Frame rate : 23.976 fps
Color space : YUV
Chroma subsampling : 4:2:0
Bit depth : 8 bits
Scan type : Progressive
Bits/(Pixel*Frame) : 0.210
Stream size : 2.41 GiB (53%)
Title : Leap Year.(2010).BDRip.720p.[denis100]
Writing library : x264 core 146 r2538 121396c
Encoding settings : cabac=1 / ref=11 / deblock=1:-3:-3 / analyse=0x3:0x133 / me=umh / subme=11 / psy=1 / psy_rd=1.00:0.00 / mixed_ref=1 / me_range=32 / chroma_me=1 / trellis=2 / 8x8dct=1 / cqm=0 / deadzone=21,11 / fast_pskip=0 / chroma_qp_offset=-2 / threads=6 / lookahead_threads=1 / sliced_threads=0 / nr=0 / decimate=1 / interlaced=0 / bluray_compat=0 / constrained_intra=0 / bframes=9 / b_pyramid=2 / b_adapt=2 / b_bias=0 / direct=3 / weightb=1 / open_gop=0 / weightp=2 / keyint=240 / keyint_min=23 / scenecut=40 / intra_refresh=0 / rc=crf / mbtree=0 / crf=17.5 / qcomp=0.60 / qpmin=0 / qpmax=69 / qpstep=4 / ip_ratio=1.40 / pb_ratio=1.30 / aq=1:1.00
Language : English
Default : Yes
Forced : No
Audio #1
ID : 2
Format : AC-3
Format/Info : Audio Coding 3
Mode extension : CM (complete main)
Codec ID : A_AC3
Duration : 1h 40mn
Bit rate mode : Constant
Bit rate : 384 Kbps
Channel(s) : 6 channels
Channel positions : Front: L C R, Side: L R, LFE
Sampling rate : 48.0 KHz
Bit depth : 16 bits
Compression mode : Lossy
Stream size : 275 MiB (6%)
Title : Дубляж, R5
Language : Russian
Default : Yes
Forced : No
Audio #2
ID : 3
Format : AC-3
Format/Info : Audio Coding 3
Mode extension : CM (complete main)
Codec ID : A_AC3
Duration : 1h 40mn
Bit rate mode : Constant
Bit rate : 448 Kbps
Channel(s) : 6 channels
Channel positions : Front: L C R, Side: L R, LFE
Sampling rate : 48.0 KHz
Bit depth : 16 bits
Compression mode : Lossy
Stream size : 321 MiB (7%)
Title : Двухголосый закадровый, R2
Language : Russian
Default : No
Forced : No
Audio #3
ID : 4
Format : AC-3
Format/Info : Audio Coding 3
Mode extension : CM (complete main)
Codec ID : A_AC3
Duration : 1h 40mn
Bit rate mode : Constant
Bit rate : 640 Kbps
Channel(s) : 6 channels
Channel positions : Front: L C R, Side: L R, LFE
Sampling rate : 48.0 KHz
Bit depth : 16 bits
Compression mode : Lossy
Stream size : 459 MiB (10%)
Title : Авторский, Юрий Сербин
Language : Russian
Default : No
Forced : No
Audio #4
ID : 5
Format : AC-3
Format/Info : Audio Coding 3
Mode extension : CM (complete main)
Codec ID : A_AC3
Duration : 1h 40mn
Bit rate mode : Constant
Bit rate : 640 Kbps
Channel(s) : 6 channels
Channel positions : Front: L C R, Side: L R, LFE
Sampling rate : 48.0 KHz
Bit depth : 16 bits
Compression mode : Lossy
Stream size : 459 MiB (10%)
Title : Авторский, Михаил Иванов
Language : Russian
Default : No
Forced : No
Audio #5
ID : 6
Format : AC-3
Format/Info : Audio Coding 3
Mode extension : CM (complete main)
Codec ID : A_AC3
Duration : 1h 40mn
Bit rate mode : Constant
Bit rate : 192 Kbps
Channel(s) : 2 channels
Channel positions : Front: L R
Sampling rate : 48.0 KHz
Bit depth : 16 bits
Compression mode : Lossy
Stream size : 138 MiB (3%)
Title : любительский одноголосый, R1shpil
Language : Russian
Default : No
Forced : No
Audio #6
ID : 7
Format : AC-3
Format/Info : Audio Coding 3
Mode extension : CM (complete main)
Codec ID : A_AC3
Duration : 1h 40mn
Bit rate mode : Constant
Bit rate : 640 Kbps
Channel(s) : 6 channels
Channel positions : Front: L C R, Side: L R, LFE
Sampling rate : 48.0 KHz
Bit depth : 16 bits
Compression mode : Lossy
Stream size : 459 MiB (10%)
Language : English
Default : No
Forced : No
Text #1
ID : 8
Format : UTF-8
Codec ID : S_TEXT/UTF8
Codec ID/Info : UTF-8 Plain Text
Language : Russian
Default : No
Forced : No
Text #2
ID : 9
Format : UTF-8
Codec ID : S_TEXT/UTF8
Codec ID/Info : UTF-8 Plain Text
Language : English
Default : No
Forced : No
Menu
00:00:00.000 : en:00:00:00.000
00:05:00.000 : en:00:05:00.000
00:05:01.384 : en:00:05:01.384
00:09:21.475 : en:00:09:21.475
00:10:00.000 : en:00:10:00.000
00:13:55.500 : en:00:13:55.500
00:15:00.000 : en:00:15:00.000
00:20:00.000 : en:00:20:00.000
00:20:45.741 : en:00:20:45.741
00:24:58.622 : en:00:24:58.622
00:25:00.000 : en:00:25:00.000
00:30:00.000 : en:00:30:00.000
00:30:36.000 : en:00:30:36.000
00:35:00.000 : en:00:35:00.000
00:35:46.768 : en:00:35:46.768
00:40:00.000 : en:00:40:00.000
00:40:15.788 : en:00:40:15.788
00:44:46.641 : en:00:44:46.641
00:45:00.000 : en:00:45:00.000
00:50:00.000 : en:00:50:00.000
00:51:41.056 : en:00:51:41.056
00:55:00.000 : en:00:55:00.000
00:56:27.050 : en:00:56:27.050
00:58:47.315 : en:00:58:47.315
01:00:00.000 : en:01:00:00.000
01:02:10.726 : en:01:02:10.726
01:05:00.000 : en:01:05:00.000
01:06:46.085 : en:01:06:46.085
01:10:00.000 : en:01:10:00.000
01:11:49.095 : en:01:11:49.095
01:15:00.000 : en:01:15:00.000
01:18:11.478 : en:01:18:11.478
01:20:00.000 : en:01:20:00.000
01:21:58.497 : en:01:21:58.497
01:25:00.000 : en:01:25:00.000
01:26:56.502 : en:01:26:56.502
01:30:00.000 : en:01:30:00.000
01:34:24.993 : en:01:34:24.993
01:35:00.000 : en:01:35:00.000
01:40:00.000 : en:01:40:00.000

x264

x264 [info]: frame I:1456 Avg QP:15.86 size: 93992
x264 [info]: frame P:28780 Avg QP:17.44 size: 36684
x264 [info]: frame B:114005 Avg QP:19.35 size: 13072

Bitrate

Скриншоты

[Профиль] [ЛС]
Кто просматривает тему:

Показать сообщения:    

Текущее время: Сегодня 10:08

Часовой пояс: GMT



Вы не можете начинать темы
Вы не можете отвечать на сообщения
Вы не можете редактировать свои сообщения
Вы не можете удалять свои сообщения
Вы не можете голосовать в опросах
Вы не можете прикреплять файлы к сообщениям
Вы не можете скачивать файлы