Как Алдар-Косе перехитрил тигра (Иван Сон-И-Сон) [1976, кукольный мультфильм, TVRip]

 
Автор Сообщение

TorrentFilm ®

Пол:

Стаж: 2 года

Сообщений: 7741



Награды: Нет

Торрент-статистика

Создавать темы 26-Май-2015 00:04

[Цитировать]

Как Алдар-Косе перехитрил тигра
Страна: СССР
Производство: Студия Казахфильм
Жанр: кукольный мультфильм
Продолжительность: 00:09:02
Год выпуска: 1976
Русские субтитры: нет
Режиссёр: Иван Сон-И-Сон
Описание: О приключениях героя казахских сказок.
Кинопоиск
Качество: TVRip
Формат: AVI
Видео: 720x480 (1.50:1), 25 fps, XviD MPEG-4 ~1970 kbps avg, 0.228 bit/pixel
Аудио: 44.1 kHz, MPEG Layer 3, 2 ch, ~192.00 kbps avg
Субтитры: Отсутствуют

Подробные технические данные

GeneralComplete name : E:\1\мультики\Как Алдар-Косе перехитрил тигра 1976.aviFormat : AVIFormat/Info : Audio Video InterleaveFile size : 140 MiBDuration : 9mn 2sOverall bit rate : 2 172 KbpsWriting application : VirtualDubMod 1.5.10.3 | www.virtualdub-fr.org || (build 2550/release)Writing library : VirtualDubMod build 2550/release
VideoID : 0Format : MPEG-4 VisualFormat profile : Advanced Simple@L5Format settings, BVOP : 2Format settings, QPel : NoFormat settings, GMC : No warppointsFormat settings, Matrix : Default (H.263)Codec ID : XVIDCodec ID/Hint : XviDDuration : 9mn 2sBit rate : 1 970 KbpsWidth : 720 pixelsHeight : 480 pixelsDisplay aspect ratio : 3:2Frame rate : 25.000 fpsStandard : NTSCColor space : YUVChroma subsampling : 4:2:0Bit depth : 8 bitsScan type : ProgressiveCompression mode : LossyBits/(Pixel*Frame) : 0.228Stream size : 127 MiB (91%)Writing library : XviD 1.2.1 (UTC 2008-12-04)
AudioID : 1Format : MPEG AudioFormat version : Version 1Format profile : Layer 3Codec ID : 55Codec ID/Hint : MP3Duration : 9mn 2sBit rate mode : ConstantBit rate : 192 KbpsChannel count : 2 channelsSampling rate : 44.1 KHzCompression mode : LossyStream size : 12.4 MiB (9%)Alignment : Split accross interleavesInterleave, duration : 40 ms (1.00 video frame)Interleave, preload duration : 500 msWriting library : LAME3.99rEncoding settings : -m s -V 4 -q 0 -lowpass 18.6 -b 192

Скриншоты

[Профиль] [ЛС]
Кто просматривает тему:

Показать сообщения:    

Текущее время: Сегодня 12:48

Часовой пояс: GMT



Вы не можете начинать темы
Вы не можете отвечать на сообщения
Вы не можете редактировать свои сообщения
Вы не можете удалять свои сообщения
Вы не можете голосовать в опросах
Вы не можете прикреплять файлы к сообщениям
Вы не можете скачивать файлы