Кайт / Kite (2014) BDRip 720p от Neofilm

 
Автор Сообщение

sergej644 ®

Пол:

Стаж: 4 года 11 месяцев

Сообщений: 6046

Откуда: Soviet Union



Награды: Нет

Торрент-статистика

Создавать темы 10-Фев-2015 17:01

[Цитировать]

Информация о фильме
Название: Кайт
Оригинальное название: Kite
Год выхода: 2014
Жанр: боевик, драма
Режиссер: Ральф Зиман
В ролях: Индиа Айсли, Сэмюэл Л. Джексон, Каллэн МакОлифф, Карл Бьюкс, Деон Лотз, Девилль Ванник, Теренс Бриджетт, Рассел Савадье, Лайонел Ньютон, Джеко Мюллер
О фильме:
Когда отец девушки по имени Кайт, полицейский, гибнет от рук мафии, она клянется найти и покарать виновных. Ее опекуном в этом нелегком деле становится Карл, напарник ее отца. Полная решимости отомстить за смерть родных, Кайт под руководством Карла становится холодным и бескомпромиссным убийцей. У ее жертв нет шанса на выживание, Кайт справляется с ними легко и жестоко. Появление в ее жизни ловкого и бесстрашного молодого человека резко меняет жизнь Кайт, которая начинает понимать, что и убийце не чужды чувства…

Страна: США, Мексика
Продолжительность: 01:29:41
Перевод: Дублированный
Файл
Кодек: x.264
Качество: BDRip 720p
Видео: CRF 18.0, ~2811 kb/s, 1280x534, 23.976 fps
Звук:
AC3, 384 kb/s (6 ch)-Дублированный
AC3, 448 kb/s (6 ch)-Оригинал
Субтитры: Английские

Скриншоты

MI

Общее
Формат                                   : Matroska
Версия формата                           : Version 2
Размер файла                             : 2,33 Гбайт
Продолжительность                        : 1 ч. 29 м.
Общий поток                              : 3717 Кбит/сек
Название фильма                          : Кайт / Kite (2014) BDRip 720p от Neofilm
Дата кодирования                         : UTC 2014-10-16 16:23:05
Программа кодирования                    : mkvmerge v5.8.0 ('No Sleep / Pillow') built on Sep  2 2012 15:37:04
Библиотека кодирования                   : libebml v1.2.3 + libmatroska v1.3.0
DURATION                                 : 01:29:41.472000000
NUMBER_OF_FRAMES                         : 168171
NUMBER_OF_BYTES                          : 301362432
Видео
Идентификатор                            : 1
Формат                                   : AVC
Формат/Информация                        : Advanced Video Codec
Профиль формата                          : High@L4.1
Параметр CABAC формата                   : Да
Параметр ReFrames формата                : 5 кадров
Идентификатор кодека                     : V_MPEG4/ISO/AVC
Продолжительность                        : 1 ч. 29 м.
Битрейт                                  : 2811 Кбит/сек
Ширина                                   : 1280 пикселей
Высота                                   : 534 пикселя
Соотношение сторон                       : 2,40:1
Режим частоты кадров                     : Постоянный
Частота кадров                           : 23,976 кадра/сек
Цветовое пространство                    : YUV
Субдискретизация насыщенности            : 4:2:0
Битовая глубина                          : 8 бит
Тип развёртки                            : Прогрессивная
Бит/(Пиксели*Кадры)                      : 0.172
Размер потока                            : 1,76 Гбайт (76%)
Заголовок                                : Кайт / Kite (2014)
Библиотека кодирования                   : x264 core 142 r2479 dd79a61
Настройки программы                      : cabac=1 / ref=5 / deblock=1:-3:-3 / analyse=0x3:0x113 / me=umh / subme=11 / psy=1 / psy_rd=1.00:0.00 / mixed_ref=1 / me_range=32 / chroma_me=1 / trellis=2 / 8x8dct=1 / cqm=0 / deadzone=21,11 / fast_pskip=0 / chroma_qp_offset=-2 / threads=12 / lookahead_threads=2 / sliced_threads=0 / nr=0 / decimate=1 / interlaced=0 / bluray_compat=0 / constrained_intra=0 / bframes=8 / b_pyramid=2 / b_adapt=2 / b_bias=0 / direct=3 / weightb=1 / open_gop=0 / weightp=2 / keyint=240 / keyint_min=23 / scenecut=40 / intra_refresh=0 / rc_lookahead=50 / rc=crf / mbtree=0 / crf=18.0 / qcomp=0.60 / qpmin=0 / qpmax=69 / qpstep=4 / vbv_maxrate=50000 / vbv_bufsize=62500 / crf_max=0.0 / nal_hrd=none / filler=0 / ip_ratio=1.40 / pb_ratio=1.30 / aq=2:1.00
Язык                                     : English
Default                                  : Да
Forced                                   : Нет
Аудио #1
Идентификатор                            : 2
Формат                                   : AC-3
Формат/Информация                        : Audio Coding 3
Расширение режима                        : CM (complete main)
Параметр Endianness формата              : Big
Идентификатор кодека                     : A_AC3
Продолжительность                        : 1 ч. 29 м.
Вид битрейта                             : Постоянный
Битрейт                                  : 384 Кбит/сек
Каналы                                   : 6 каналов
Расположение каналов                     : Front: L C R, Side: L R, LFE
Частота                                  : 48,0 КГц
Битовая глубина                          : 16 бит
Метод сжатия                             : С потерями
Размер потока                            : 246 Мбайт (10%)
Заголовок                                : DUB
Язык                                     : Russian
Default                                  : Нет
Forced                                   : Да
Аудио #2
Идентификатор                            : 3
Формат                                   : AC-3
Формат/Информация                        : Audio Coding 3
Профиль формата                          : Dolby Digital
Расширение режима                        : CM (complete main)
Параметр Endianness формата              : Big
Идентификатор кодека                     : A_AC3
Продолжительность                        : 1 ч. 29 м.
Вид битрейта                             : Постоянный
Битрейт                                  : 448 Кбит/сек
Каналы                                   : 2 канала
Расположение каналов                     : Front: L R
Частота                                  : 48,0 КГц
Битовая глубина                          : 16 бит
Метод сжатия                             : С потерями
Размер потока                            : 287 Мбайт (12%)
Язык                                     : English
Default                                  : Нет
Forced                                   : Нет
Текст
Идентификатор                            : 4
Формат                                   : UTF-8
Идентификатор кодека                     : S_TEXT/UTF8
Идентификатор кодека/Информация          : UTF-8 Plain Text
Язык                                     : English
Default                                  : Нет
Forced                                   : Нет
Меню
00:00:00.000                             : en:Chapter 01
00:04:39.487                             : en:Chapter 02
00:10:09.775                             : en:Chapter 03
00:18:20.682                             : en:Chapter 04
00:26:21.705                             : en:Chapter 05
00:34:02.415                             : en:Chapter 06
00:38:41.444                             : en:Chapter 07
00:46:41.590                             : en:Chapter 08
00:52:40.615                             : en:Chapter 09
01:03:40.733                             : en:Chapter 10
01:13:40.749                             : en:Chapter 11
01:24:00.618                             : en:Chapter 12
[Профиль] [ЛС]
Кто просматривает тему:

Показать сообщения:    

Текущее время: Сегодня 13:03

Часовой пояс: GMT



Вы не можете начинать темы
Вы не можете отвечать на сообщения
Вы не можете редактировать свои сообщения
Вы не можете удалять свои сообщения
Вы не можете голосовать в опросах
Вы не можете прикреплять файлы к сообщениям
Вы не можете скачивать файлы