Казино Рояль / Casino Royale (1967) HDRip от Шкипер | P, A

 
Автор Сообщение

Шкипер ®

Пол:

Стаж: 1 год 7 месяцев

Сообщений: 52



Награды: Нет

Торрент-статистика

Создавать темы 09-Авг-2016 14:54

[Цитировать]

Информация о фильме
Название: Казино Рояль
Оригинальное название: Casino Royale
Год выхода: 1967
Жанр: Комедия
Режиссер: Кен Хьюз / Ken Hughes, Джон Хьюстон / John Huston, Джозеф МакГрат / Joseph McGrath
В ролях: Питер Селлерс, Урсула Андресс, Дэвид Нивен, Орсон Уэллс, Джоанна Петтет, Далия Лави, Вуди Аллен, Дебора Керр, Уильям Холден, Шарль Буайе, Джон Хьюстон, Курт Казнар
О фильме: Единственная комедия бондианы, поставленная по одноименному роману Яна Флеминга. Могущественная тайная организация уничтожила всех агентов британской разведки. У королевской разведки единственный выход - обратиться за помощью к ушедшему на покой после гибели любимой девушки Джеймсу Бонду, легендарному агенту 007, обладающему лицензией на убийство...

Страна: Великобритания, США
Продолжительность: 02:11:09
Перевод: Профессиональный (многоголосый, закадровый) - MVO ( DVDMagic )
Профессиональный (многоголосый, закадровый) - MVO ( SomeWax )
Авторский - AVO ( Горчаков ) Сэмпл 3
Файл
Кодек: XviD
Качество: HDRip
Видео: 688x288 (2.39:1), 23.976 fps, XviD MPEG-4 ~1125 kbps avg, 0.24 bit/pixel
Звук:
Audio #1: 48 kHz, AC3 Dolby Digital, 3/2 (L,C,R,l,r) + LFE ch, ~384 kbps
Audio #2: 48 kHz, AC3 Dolby Digital, 3/2 (L,C,R,l,r) + LFE ch, ~384 kbps
Audio #3: 48 kHz, AC3 Dolby Digital, 2 ch, ~384.00 kbps avg
Audio #4: 48 kHz, AC3 Dolby Digital, 6 ch, ~384.00 kbps avg - (Оригинал / ENG)
Субтитры: Русские (отдельный файл)
Семпл Сэмпл 2

MI

General
Complete name : D:ТоррентыРип от ШкиперКазино рояльKasino.HDRip rus.eng by shkiperKasino.HDRip rus.eng by shkiper.avi
Format : AVI
Format/Info : Audio Video Interleave
Format profile : OpenDML
File size : 2.44 GiB
Duration : 2h 11mn
Overall bit rate : 2 668 Kbps
Writing application : VirtualDubMod 1.5.10.2 (build 2540/release)
Writing library : VirtualDubMod build 2540/release
Video
ID : 0
Format : MPEG-4 Visual
Format profile : Advanced Simple@L5
Format settings, BVOP : 1
Format settings, QPel : No
Format settings, GMC : No warppoints
Format settings, Matrix : Custom
Codec ID : XVID
Codec ID/Hint : XviD
Duration : 2h 11mn
Bit rate : 1 104 Kbps
Width : 688 pixels
Height : 288 pixels
Display aspect ratio : 2.40:1
Frame rate : 23.976 (23976/1000) fps
Color space : YUV
Chroma subsampling : 4:2:0
Bit depth : 8 bits
Scan type : Progressive
Compression mode : Lossy
Bits/(Pixel*Frame) : 0.232
Stream size : 1.01 GiB (41%)
Writing library : XviD 73
Audio #1
ID : 1
Format : AC-3
Format/Info : Audio Coding 3
Mode extension : CM (complete main)
Format settings, Endianness : Big
Codec ID : 2000
Duration : 2h 11mn
Bit rate mode : Constant
Bit rate : 384 Kbps
Channel(s) : 6 channels
Channel positions : Front: L C R, Side: L R, LFE
Sampling rate : 48.0 KHz
Frame rate : 31.250 fps (1536 spf)
Compression mode : Lossy
Stream size : 360 MiB (14%)
Alignment : Split accross interleaves
Interleave, duration : 42 ms (1.00 video frame)
Interleave, preload duratio : 500 ms
Audio #2
ID : 2
Format : AC-3
Format/Info : Audio Coding 3
Mode extension : CM (complete main)
Format settings, Endianness : Big
Codec ID : 2000
Duration : 2h 11mn
Bit rate mode : Constant
Bit rate : 384 Kbps
Channel(s) : 6 channels
Channel positions : Front: L C R, Side: L R, LFE
Sampling rate : 48.0 KHz
Frame rate : 31.250 fps (1536 spf)
Compression mode : Lossy
Stream size : 360 MiB (14%)
Alignment : Split accross interleaves
Interleave, duration : 42 ms (1.00 video frame)
Interleave, preload duratio : 500 ms
Audio #3
ID : 3
Format : AC-3
Format/Info : Audio Coding 3
Mode extension : CM (complete main)
Format settings, Endianness : Big
Codec ID : 2000
Duration : 2h 11mn
Bit rate mode : Constant
Bit rate : 384 Kbps
Channel(s) : 2 channels
Channel positions : Front: L R
Sampling rate : 48.0 KHz
Frame rate : 31.250 fps (1536 spf)
Compression mode : Lossy
Stream size : 360 MiB (14%)
Alignment : Split accross interleaves
Interleave, duration : 42 ms (1.00 video frame)
Interleave, preload duratio : 500 ms
Audio #4
ID : 4
Format : AC-3
Format/Info : Audio Coding 3
Mode extension : CM (complete main)
Format settings, Endianness : Big
Codec ID : 2000
Duration : 2h 11mn
Bit rate mode : Constant
Bit rate : 384 Kbps
Channel(s) : 6 channels
Channel positions : Front: L C R, Side: L R, LFE
Sampling rate : 48.0 KHz
Frame rate : 31.250 fps (1536 spf)
Compression mode : Lossy
Stream size : 360 MiB (14%)
Alignment : Split accross interleaves
Interleave, duration : 42 ms (1.00 video frame)
Interleave, preload duratio : 500 ms

Скриншоты

Релиз от:
[Профиль] [ЛС]
Кто просматривает тему:

Форум Тема Автор Размер
Фильмы 2011 года 007: Казино Рояль / Casino Royale (Мартин Кэмпбелл / Martin Campbell) [2006, Германия, США, Великобритания, Чехия, боевик, триллер, приключения, BDRip] Dub [Полная версия / UnCut] painkiller 1.46 GB
Фильмы 2011 года Джеймс Бонд - Агент 007 : Казино Рояль / Casino Royale (Мартин Кэмпбелл / Martin Campbell) [2006, Великобритания, Боевик, триллер, приключения, BDRip] [Полная версия / UnCut] Dub TorrentFilm 2.18 GB
Фильмы (HD DVD, Blu-ray и BDRemux) Джеймс Бонд. Агент 007: Казино Рояль / James Bond: Casino Royale (Мартин Кэмпбелл / Martin Campbell) [2006, Великобритания, Чехия, США, Германия, Багамы, боевик, триллер, Blu-ray disc 1080p] [Uncut]... Russian Mafia 43.67 GB
Фильмы (HD DVD, Blu-ray и BDRemux) Казино / Casino (1995) BDRemux 1080р | Р2, А Russian Mafia 55.64 GB
Фильмы 2011 года Казино / Casino (Мартин Скорсезе / Martin Scorsese) [1995, США, Драма, криминал, биография, BDRip-AVC] MVO (ОРТ) + DVO (РЕН ТВ) sergej644 1.46 GB
Фильмы (HD Rips | 720p, 1080p) Казино Рояль / Casino Royale (1967) BDRip 720p | P, A Russian Mafia 6.77 GB
Фильмы 2011 года Казино Рояль / Casino Royale (Мартин Кэмпбелл / Martin Campbell) [2006, Великобритания, Чехия, США, Германия, Багамы, Боевик, Триллер, Приключения, DVDRip] [FullScreen] Dub + Subs + Original Eng TorrentFilm 2.06 GB
Боевики, детективы, триллеры Казински А. Й. - Последний праведник (2016) MP3 Swager 813 MB
Показать сообщения:    

Текущее время: Сегодня 10:34

Часовой пояс: GMT



Вы не можете начинать темы
Вы не можете отвечать на сообщения
Вы не можете редактировать свои сообщения
Вы не можете удалять свои сообщения
Вы не можете голосовать в опросах
Вы не можете прикреплять файлы к сообщениям
Вы не можете скачивать файлы