Казино Рояль / Casino Royale (1967) BDRip 720p | P, A

 
Автор Сообщение

Russian Mafia ®

Пол:

Стаж: 1 год 8 месяцев

Сообщений: 4247



Награды: 10 (Подробнее)

Top Releaser 2 (Количество: 1) Mega Seeder 1 (Количество: 1) Mega Seeder 5 (Количество: 1)
Торрент-статистика

Создавать темы 05-Авг-2016 15:54

[Цитировать]

Казино РояльCasino Royale«Casino Royale is too much for one James Bond!»- Страна: Великобритания, США
Жанр: комедия
Год выпуска: 1967
Продолжительность: 02:11:08
Перевод: 2 x Профессиональный (многоголосый, закадровый), Авторский, Оригинальный
Субтитры: русские, английские.-Режиссер: Кен Хьюз / Ken Hughes, Джон Хьюстон / John Huston, Джозеф МакГрат / Joseph McGrath-В ролях: Питер Селлерс (Evelyn Tremble / James Bond 007), Урсула Андресс (Vesper Lynd / James Bond 007), Дэвид Нивен (Sir James Bond), Орсон Уэллс (Le Chiffre), Джоанна Петтет (Mata Bond), Далия Лави (The Detainer / James Bond 007), Вуди Аллен (Jimmy Bond (Dr. Noah)), Дебора Керр (Agent Mimi / Lady Fiona McTarry), Уильям Холден (Ransome), Шарль Буайе (Le Grand), Джон Хьюстон (M / General McTarry), Курт Казнар (Smernov)-Описание: Единственная комедия бондианы, поставленная по одноименному роману Яна Флеминга. Могущественная тайная организация уничтожила всех агентов британской разведки. У королевской разведки единственный выход - обратиться за помощью к ушедшему на покой после гибели любимой девушки Джеймсу Бонду, легендарному агенту 007, обладающему лицензией на убийство...- -Семпл-Качество: BDRip
Контейнер: MKV
Видео: AVC, 1280x544 (2.35:1), 5132 kbps, 23,976 fps, 0,307 bpp
Аудио №1: русский / AC3 / 5.1 / 48 kHz / 640 kbps / MVO ( DVDMagic )
Аудио №2: русский / AC3 / 5.1 / 48 kHz / 640 kbps / MVO ( SomeWax )
Аудио №3: русский / AC3 / 2.0 / 48 kHz / 192 kbps / AVO ( Горчаков )
Аудио №4: английский / AC3 / 5.1 / 48 kHz / 640 kbps
Навигация по главам: есть-

Media Info

Format : Matroska
Format version : Version 2
File size : 6.77 GiB
Duration : 2h 11mn
Overall bit rate : 7 392 Kbps
Movie name : = Казино Рояль / Casino Royale (1967) BDRip 720p by SC Kosmos =
Encoded date : UTC 2016-06-23 14:52:20
Writing application : mkvmerge v5.8.0 ('No Sleep / Pillow') built on Sep 2 2012 15:37:04
Writing library : libebml v1.2.3 + libmatroska v1.3.0
Attachment : Yes
Video
ID : 1
Format : AVC
Format/Info : Advanced Video Codec
Format profile : High@L4.1
Format settings, CABAC : Yes
Format settings, ReFrames : 10 frames
Codec ID : V_MPEG4/ISO/AVC
Duration : 2h 11mn
Bit rate : 5 133 Kbps
Width : 1 280 pixels
Height : 544 pixels
Display aspect ratio : 2.35:1
Frame rate : 23.976 fps
Color space : YUV
Chroma subsampling : 4:2:0
Bit depth : 8 bits
Scan type : Progressive
Bits/(Pixel*Frame) : 0.307
Stream size : 4.70 GiB (69%)
Title : Казино Рояль / Casino Royale (1967) BDRip 720p by SC Kosmos
Writing library : x264 core 146 r2538 121396c
Encoding settings : cabac=1 / ref=10 / deblock=1:-3:-3 / analyse=0x3:0x113 / me=umh / subme=11 / psy=1 / psy_rd=1.00:0.00 / mixed_ref=1 / me_range=32 / chroma_me=1 / trellis=2 / 8x8dct=1 / cqm=0 / deadzone=21,11 / fast_pskip=0 / chroma_qp_offset=-2 / threads=12 / lookahead_threads=3 / sliced_threads=0 / nr=0 / decimate=1 / interlaced=0 / bluray_compat=0 / constrained_intra=0 / bframes=10 / b_pyramid=2 / b_adapt=2 / b_bias=0 / direct=3 / weightb=1 / open_gop=0 / weightp=2 / keyint=240 / keyint_min=23 / scenecut=40 / intra_refresh=0 / rc_lookahead=50 / rc=crf / mbtree=0 / crf=17.0 / qcomp=0.60 / qpmin=0 / qpmax=69 / qpstep=4 / vbv_maxrate=62500 / vbv_bufsize=78125 / crf_max=0.0 / nal_hrd=none / filler=0 / ip_ratio=1.40 / pb_ratio=1.30 / aq=1:1.00
Language : English
Default : Yes
Forced : No
Color primaries : BT.709-5, BT.1361, IEC 61966-2-4, SMPTE RP177
Transfer characteristics : BT.709-5, BT.1361
Matrix coefficients : BT.709-5, BT.1361, IEC 61966-2-4 709, SMPTE RP177
Audio #1
ID : 2
Format : AC-3
Format/Info : Audio Coding 3
Mode extension : CM (complete main)
Codec ID : A_AC3
Duration : 2h 11mn
Bit rate mode : Constant
Bit rate : 640 Kbps
Channel(s) : 6 channels
Channel positions : Front: L C R, Side: L R, LFE
Sampling rate : 48.0 KHz
Bit depth : 16 bits
Compression mode : Lossy
Stream size : 600 MiB (9%)
Title : MVO ( DVDMagic )
Language : Russian
Default : Yes
Forced : No
Audio #2
ID : 3
Format : AC-3
Format/Info : Audio Coding 3
Mode extension : CM (complete main)
Codec ID : A_AC3
Duration : 2h 11mn
Bit rate mode : Constant
Bit rate : 640 Kbps
Channel(s) : 6 channels
Channel positions : Front: L C R, Side: L R, LFE
Sampling rate : 48.0 KHz
Bit depth : 16 bits
Compression mode : Lossy
Stream size : 600 MiB (9%)
Title : MVO ( SomeWax )
Language : Russian
Default : No
Forced : No
Audio #3
ID : 4
Format : AC-3
Format/Info : Audio Coding 3
Format profile : Dolby Digital
Mode extension : CM (complete main)
Codec ID : A_AC3
Duration : 2h 11mn
Bit rate mode : Constant
Bit rate : 192 Kbps
Channel(s) : 2 channels
Channel positions : Front: L R
Sampling rate : 48.0 KHz
Bit depth : 16 bits
Compression mode : Lossy
Stream size : 180 MiB (3%)
Title : AVO ( Горчаков )
Language : Russian
Default : No
Forced : No
Audio #4
ID : 5
Format : AC-3
Format/Info : Audio Coding 3
Mode extension : CM (complete main)
Codec ID : A_AC3
Duration : 2h 11mn
Bit rate mode : Constant
Bit rate : 640 Kbps
Channel(s) : 6 channels
Channel positions : Front: L C R, Side: L R, LFE
Sampling rate : 48.0 KHz
Bit depth : 16 bits
Compression mode : Lossy
Stream size : 600 MiB (9%)
Language : English
Default : No
Forced : No
Text #1
ID : 6
Format : PGS
Muxing mode : zlib
Codec ID : S_HDMV/PGS
Codec ID/Info : The same subtitle format used on BDs/HD-DVDs
Language : Russian
Default : No
Forced : No
Text #2
ID : 7
Format : PGS
Muxing mode : zlib
Codec ID : S_HDMV/PGS
Codec ID/Info : The same subtitle format used on BDs/HD-DVDs
Language : English
Default : No
Forced : No
Menu
00:00:00.000 : en:00:00:00.000
00:05:42.384 : en:00:05:42.384
00:12:03.848 : en:00:12:03.848
00:15:46.487 : en:00:15:46.487
00:19:23.954 : en:00:19:23.954
00:21:47.848 : en:00:21:47.848
00:28:04.391 : en:00:28:04.391
00:37:02.512 : en:00:37:02.512
00:40:24.380 : en:00:40:24.380
00:44:19.031 : en:00:44:19.031
00:52:11.170 : en:00:52:11.170
00:56:34.641 : en:00:56:34.641
01:01:20.886 : en:01:01:20.886
01:08:19.053 : en:01:08:19.053
01:16:42.681 : en:01:16:42.681
01:22:20.936 : en:01:22:20.936
01:28:55.372 : en:01:28:55.372
01:41:04.475 : en:01:41:04.475
01:46:17.788 : en:01:46:17.788
01:50:22.282 : en:01:50:22.282
01:53:15.872 : en:01:53:15.872
01:58:59.090 : en:01:58:59.090
02:03:33.031 : en:02:03:33.031
02:08:41.213 : en:02:08:41.213
-

Скриншоты


[Профиль] [ЛС]
Кто просматривает тему:

Форум Тема Автор Размер
Фильмы 2011 года 007: Казино Рояль / Casino Royale (Мартин Кэмпбелл / Martin Campbell) [2006, Германия, США, Великобритания, Чехия, боевик, триллер, приключения, BDRip] Dub [Полная версия / UnCut] painkiller 1.46 GB
Фильмы 2011 года Джеймс Бонд - Агент 007 : Казино Рояль / Casino Royale (Мартин Кэмпбелл / Martin Campbell) [2006, Великобритания, Боевик, триллер, приключения, BDRip] [Полная версия / UnCut] Dub TorrentFilm 2.18 GB
Фильмы (HD DVD, Blu-ray и BDRemux) Джеймс Бонд. Агент 007: Казино Рояль / James Bond: Casino Royale (Мартин Кэмпбелл / Martin Campbell) [2006, Великобритания, Чехия, США, Германия, Багамы, боевик, триллер, Blu-ray disc 1080p] [Uncut]... Russian Mafia 43.67 GB
Фильмы (HD DVD, Blu-ray и BDRemux) Казино / Casino (1995) BDRemux 1080р | Р2, А Russian Mafia 55.64 GB
Фильмы 2011 года Казино / Casino (Мартин Скорсезе / Martin Scorsese) [1995, США, Драма, криминал, биография, BDRip-AVC] MVO (ОРТ) + DVO (РЕН ТВ) sergej644 1.46 GB
Классика зарубежного кино Казино Рояль / Casino Royale (1967) HDRip от Шкипер | P, A Шкипер 2.44 GB
Фильмы 2011 года Казино Рояль / Casino Royale (Мартин Кэмпбелл / Martin Campbell) [2006, Великобритания, Чехия, США, Германия, Багамы, Боевик, Триллер, Приключения, DVDRip] [FullScreen] Dub + Subs + Original Eng TorrentFilm 2.06 GB
Боевики, детективы, триллеры Казински А. Й. - Последний праведник (2016) MP3 Swager 813 MB
Показать сообщения:    

Текущее время: Сегодня 00:12

Часовой пояс: GMT



Вы не можете начинать темы
Вы не можете отвечать на сообщения
Вы не можете редактировать свои сообщения
Вы не можете удалять свои сообщения
Вы не можете голосовать в опросах
Вы не можете прикреплять файлы к сообщениям
Вы не можете скачивать файлы