Казанова 70 / Casanova '70 (1965) BDRip 1080p | P2

 
Автор Сообщение

Russian Mafia ®

Пол:

Стаж: 1 год 8 месяцев

Сообщений: 4257



Награды: 10 (Подробнее)

Mega Seeder 3 (Количество: 1) Top Releaser 3 (Количество: 1) Top Releaser 5 (Количество: 1)
Торрент-статистика

Создавать темы 27-Авг-2016 09:28

[Цитировать]

Название: Казанова 70
Оригинальное название: Casanova '70
Год выхода: 1965
Страна: Италия, Франция
Студия: Euro International Film (EIA), Compagnia Cinematografica Champion, Les Films Concordia
Продолжительность: 01:55:21
Жанр: драма, комедия, ...
Режиссер: Марио Моничелли
В ролях: Марчелло Мастроянни, Вирна Лизи, Мариза Мелл, Мишель Мерсье, Энрико Мария Салерно, Лиана Орфей, Гуидо Альберти, Беба Лончар, Мойра Орфей, Маргарет Ли, ...
Перевод: Профессиональный (двуголосый, закадровый) ?
О фильме: Для майора Росси соблазнение являлось обычным и простым занятием, женщины становились легкой добычей в его руках. Но после бурного расставания с одной из подружек, которая в пылу гнева публично называет его импотентом, Андре обнаруживает, что она почти права — он уже не жеребец, готовый к совокуплению при любых обстоятельствах.
Теперь он способен вступать в интимную связь с женщиной только когда ему что-то угрожает. Психоаналитик советует перейти к исключительно платоническим отношениям, но современный Казанова предпочитает постоянно пребывать в поисках опасных наслаждений…

Кодек: x264
Качество: BDRip 1080p
Видео: 1892x1020, 12000 kbps, 23,976 fps
Аудио #1: AC-3, 2 ch, 192 kbps (Rus) - DVO
Аудио #2: DTS, 1 ch, 768 kbps (Ita)
Субтитры: Английские

Дополнительная информация

За исходник спасибо - pyha

MediaInfo

x264 [info]: frame I:931 Avg QP:23.96 size:325894
x264 [info]: frame P:33752 Avg QP:26.78 size:133572
x264 [info]: frame B:131278 Avg QP:28.86 size: 42429
x264 [info]: consecutive B-frames: 0.9% 0.6% 2.8% 26.1% 21.1% 46.7% 1.5% 0.1% 0.0% 0.0% 0.0% 0.0% 0.1%
Общее
Уникальный идентификатор : 199701257082469306381520387997445964794 (0x963D1026F93E9E00A102B4DB2538C3FA)
Полное имя : Казанова 70 (Casanova '70) 1965 BDRip 1080p.mkv
Формат : Matroska
Версия формата : Version 2
Размер файла : 10,4 Гбайт
Продолжительность : 1 ч. 55 м.
Общий поток : 13,0 Мбит/сек
Дата кодирования : UTC 2016-08-26 21:35:12
Программа кодирования : mkvmerge v4.0.0 ('The Stars were mine') сборка от Jun 6 2010 16:18:42
Библиотека кодирования : libebml v1.0.0 + libmatroska v1.0.0
Видео
Идентификатор : 1
Формат : AVC
Формат/Информация : Advanced Video Codec
Профиль формата : High@L4.1
Параметр CABAC формата : Да
Параметр ReFrames формата : 4 кадра
Идентификатор кодека : V_MPEG4/ISO/AVC
Продолжительность : 1 ч. 55 м.
Битрейт : 12,0 Мбит/сек
Ширина : 1892 пикселя
Высота : 1020 пикселей
Соотношение сторон : 1,85:1
Режим частоты кадров : Постоянный
Частота кадров : 23,976 (24000/1001) кадра/сек
Цветовое пространство : YUV
Субдискретизация насыщенности : 4:2:0
Битовая глубина : 8 бит
Тип развёртки : Прогрессивная
Бит/(Пиксели*Кадры) : 0.259
Размер потока : 9,46 Гбайт (91%)
Библиотека кодирования : x264 core 146 r2538 121396c
Настройки программы : cabac=1 / ref=4 / deblock=1:-3:-3 / analyse=0x3:0x133 / me=umh / subme=11 / psy=1 / psy_rd=1.00:0.00 / mixed_ref=1 / me_range=32 / chroma_me=1 / trellis=2 / 8x8dct=1 / cqm=0 / deadzone=21,11 / fast_pskip=0 / chroma_qp_offset=-2 / threads=12 / lookahead_threads=2 / sliced_threads=0 / nr=0 / decimate=0 / interlaced=0 / bluray_compat=0 / constrained_intra=0 / bframes=12 / b_pyramid=2 / b_adapt=2 / b_bias=0 / direct=3 / weightb=1 / open_gop=0 / weightp=2 / keyint=240 / keyint_min=23 / scenecut=40 / intra_refresh=0 / rc=2pass / mbtree=0 / bitrate=12000 / ratetol=1.0 / qcomp=0.60 / qpmin=0 / qpmax=69 / qpstep=4 / cplxblur=20.0 / qblur=0.5 / ip_ratio=1.40 / pb_ratio=1.30 / aq=1:0.80
Язык : Italian
Default : Нет
Forced : Нет
Аудио #1
Идентификатор : 2
Формат : AC-3
Формат/Информация : Audio Coding 3
Расширение режима : CM (complete main)
Параметр Endianness формата : Big
Идентификатор кодека : A_AC3
Продолжительность : 1 ч. 55 м.
Вид битрейта : Постоянный
Битрейт : 192 Кбит/сек
Каналы : 2 канала
Расположение каналов : Front: L R
Частота : 48,0 КГц
Частота кадров : 31,250 кадров/сек (1536 spf)
Метод сжатия : С потерями
Размер потока : 158 Мбайт (1%)
Заголовок : DVO
Язык : Russian
Default : Нет
Forced : Нет
Аудио #2
Идентификатор : 3
Формат : DTS
Формат/Информация : Digital Theater Systems
Режим : 16
Параметр Endianness формата : Big
Идентификатор кодека : A_DTS
Продолжительность : 1 ч. 55 м.
Вид битрейта : Постоянный
Битрейт : 768 Кбит/сек
Каналы : 1 канал
Расположение каналов : Front: C
Частота : 48,0 КГц
Частота кадров : 93,750 кадра/сек (512 spf)
Битовая глубина : 16 бит
Метод сжатия : С потерями
Размер потока : 634 Мбайт (6%)
Язык : Italian
Default : Нет
Forced : Нет
Текст
Идентификатор : 4
Формат : UTF-8
Идентификатор кодека : S_TEXT/UTF8
Идентификатор кодека/Информация : UTF-8 Plain Text
Язык : English
Default : Нет
Forced : Нет

[Профиль] [ЛС]
Кто просматривает тему:

Форум Тема Автор Размер
Other genres (Pop, Dance, Club) VA - Дискотека Казанова. Старые Песни По Новому Vol.1 - 2015, MP3, 320 kbps Magnat 185 MB
BBC BBC: Византия - сказания о трёх городах / Byzantium: A Tale of Three Cities [серии 1-3 из 3] (Грэхам Джонстон) [2013 г., Документальный, история, HDTVRip 720p] skorpionN 3.67 GB
История, биографии, религия и искусство Аксёнов Дмитрий - Предсказания будущего. Шокирующая правда от Лукьяненко, Леви, Капицы и других [Телегина Татьяна, 2015] Magnat 399 MB
Зарубежные сериалы Как избежать наказания за убийство / How to Get Away with Murder [01х01 из 22] (2014) WEB-DL 720р от MediaClub | D | Невафильм sergej644 1.39 GB
Зарубежные сериалы Как избежать наказания за убийство / How to Get Away with Murder [01х01-02 из 22] (2014) WEB-DL 720р от MediaClub | D | Невафильм Белочка 2.85 GB
Зарубежные сериалы Как избежать наказания за убийство / How to Get Away with Murder [01х01-02 из 22] (2014) WEB-DLRip от MediaClub | D | Невафильм Белочка 1.39 GB
Зарубежные сериалы Как избежать наказания за убийство / How to Get Away with Murder [01х01-03 из 22] (2014) WEB-DL 720р от MediaClub | D Белочка 4.24 GB
Зарубежные сериалы Как избежать наказания за убийство / How to Get Away with Murder [01х01-05] (2014) WEB-DLRip sergej644 2.54 GB
Показать сообщения:    

Текущее время: Сегодня 11:53

Часовой пояс: GMT



Вы не можете начинать темы
Вы не можете отвечать на сообщения
Вы не можете редактировать свои сообщения
Вы не можете удалять свои сообщения
Вы не можете голосовать в опросах
Вы не можете прикреплять файлы к сообщениям
Вы не можете скачивать файлы