Кажется, я люблю свою жену / I Think I Love My Wife (Крис Рок / Chris Rock) [2007, США, Индия, комедия, мелодрама, WEB-DLRip] MVO (1 канал) + Original Eng

 
Автор Сообщение

painkiller ®

Стаж: 2 года 3 месяца

Сообщений: 582



Награды: Нет

Торрент-статистика

Создавать темы 14-Авг-2014 09:11

[Цитировать]

Кажется, я люблю свою жену / I Think I Love My Wife
Страна: США, Индия
Студия: Fox Searchlight Pictures, UTV Motion Pictures, Zahrlo Productions
Жанр: комедия, мелодрама
Год выпуска: 2007
Продолжительность: 01:33:39
Перевод: Профессиональный (многоголосый закадровый) 1 канал
Cубтитры: нет
Оригинальная аудиодорожка: английский
Режиссер: Крис Рок / Chris Rock
В ролях: Крис Рок, Керри Вашингтон, Джина Торрес, Стив Бушеми, Эдвард Херрманн, Уэлкер Уайт, Саманта Айверс, Майкл К. Уильямс, Кассандра Фриман, Стефен А. Смит
Описание: Главный герой Ричард Купер имеет хорошую работу, жену и двух детей. Но ему скучно, и совместное посещение с женой психолога не помогают. Из прошлого в настоящее возвращается его подруга, которая предоставляет ему шанс переосмыслить многое в своей жизни, или просто изменить своей жене.
II Сэмпл II IMDB II
Доп. информация:
Запись звука с 1 канала и синхронизация vedigo
Качество видео: WEB-DLRip
Формат видео: AVI
Видео: Xvid 720x400 (16:9) 23.976fps Bit rate 1648Kbps b/p 0.239
Аудио 1: AC3 48.0 KHz 2ch. 192kbps rus mvo
Аудио 2: AC3 48.0 KHz 6ch. 384kbps eng

MediaInfo

Общее
Полное имя : E:\torrent\I.Think.I.Love.My.Wife.2007.WEB-DL.Rip.avi
Формат : AVI
Формат/Информация : Audio Video Interleave
Размер файла : 1,46 Гбайт
Продолжительность : 1 ч. 33 м.
Общий поток : 2238 Кбит/сек
Программа кодирования : VirtualDubMod 1.5.10.3 (build 2550/release)
Библиотека кодирования : VirtualDubMod build 2550/release
Видео
Идентификатор : 0
Формат : MPEG-4 Visual
Профиль формата : Advanced Simple@L5
Параметр BVOP формата : 2
Параметр QPel формата : Нет
Параметр GMC формата : Без точки перехода
Параметр матрицы формата : Default (H.263)
Идентификатор кодека : XVID
Идентификатор кодека/Подсказка : XviD
Продолжительность : 1 ч. 33 м.
Битрейт : 1648 Кбит/сек
Ширина : 720 пикселей
Высота : 400 пикселей
Соотношение сторон : 16:9
Частота кадров : 23,976 кадра/сек
Цветовое пространство : YUV
Субдискретизация насыщенности : 4:2:0
Битовая глубина : 8 бит
Тип развёртки : Прогрессивная
Метод сжатия : С потерями
Бит/(Пиксели*Кадры) : 0.239
Размер потока : 1,08 Гбайт (74%)
Библиотека кодирования : XviD 1.2.1 (UTC 2008-12-04)
Аудио #1
Идентификатор : 1
Формат : AC-3
Формат/Информация : Audio Coding 3
Расширение режима : CM (complete main)
Параметр Endianness формата : Big
Идентификатор кодека : 2000
Продолжительность : 1 ч. 33 м.
Вид битрейта : Постоянный
Битрейт : 192 Кбит/сек
Каналы : 2 канала
Расположение каналов : Front: L R
Частота : 48,0 КГц
Битовая глубина : 16 бит
Метод сжатия : С потерями
Размер потока : 129 Мбайт (9%)
Выравнивание : Разделение по промежуткам
Продолжительность промежутка : 42 мс. (1,00 видеокадр)
Время предзагрузки промежутка : 500 мс.
Аудио #2
Идентификатор : 2
Формат : AC-3
Формат/Информация : Audio Coding 3
Расширение режима : CM (complete main)
Параметр Endianness формата : Big
Идентификатор кодека : 2000
Продолжительность : 1 ч. 33 м.
Вид битрейта : Постоянный
Битрейт : 384 Кбит/сек
Каналы : 6 каналов
Расположение каналов : Front: L C R, Side: L R, LFE
Частота : 48,0 КГц
Битовая глубина : 16 бит
Метод сжатия : С потерями
Размер потока : 257 Мбайт (17%)
Выравнивание : Разделение по промежуткам
Продолжительность промежутка : 42 мс. (1,00 видеокадр)
Время предзагрузки промежутка : 500 мс.

Скриншот c названием фильма

Скриншоты

[Профиль] [ЛС]

Создавать темы 06-Авг-2015 23:15 (спустя 11 месяцев 23 дня)

Топик был перенесен из форума Фильмы до 2014 года в форум Фильмы до 2012 года
sergej644
 
Показать сообщения:    

Текущее время: Сегодня 08:17

Часовой пояс: GMT



Вы не можете начинать темы
Вы не можете отвечать на сообщения
Вы не можете редактировать свои сообщения
Вы не можете удалять свои сообщения
Вы не можете голосовать в опросах
Вы не можете прикреплять файлы к сообщениям
Вы не можете скачивать файлы