Кадиллак Рекордс / Cadillac Records (Дарнелл Мартин / Darnell Martin) [2008, США, драма, мелодрама, биография, история, музыка, BDRip] MVO (R5)

 
Автор Сообщение

painkiller ®

Стаж: 2 года 3 месяца

Сообщений: 582



Награды: Нет

Торрент-статистика

Создавать темы 17-Авг-2014 01:02

[Цитировать]

Кадиллак Рекордс / Cadillac Records
Страна: США
Жанр: драма, мелодрама, биография, история, музыка
Год выпуска: 2008
Продолжительность: 01:48:34
Перевод: Профессиональный (многоголосый закадровый) R5
Cубтитры: русские тексты песен
Режиссер: Дарнелл Мартин / Darnell Martin
В ролях: Эдриан Броуди, Джеффри Райт, Гэбриэл Юнион, Коламбус Шорт, Седрик «Развлекатель», Эммануэль Шрики, Имонн Уолкер, Тэмми Бланчард, Эрик Богосян, Норман Ридус, Мос Деф, Бейонсе Ноулз
Описание: В этой истории о сексе, жестокости, расе и рок-н-ролле Чикаго 1950-ых, «Кадиллак Рекордс» прослеживает захватывающие, но бурные жизни некоторых музыкальных легенд Америки, включая Мадди Уотерса, Леонарда Чезза, Литтл Уолтера, Хоулин Уолфа, Этты Джеймс и Чака Берри.
Доп. информация:
Качество видео: BDRip | FREEDONOR/1080p BD-Remux
Формат видео: AVI
Видео: 720x304 (2.37:1), 23.976 fps, XviD build 73 ~1460 kbps avg, 0.28 bit/pixel
Аудио: 48 kHz, AC3 Dolby Digital, 3/2 (L,C,R,l,r) + LFE ch, ~448 kbps
Формат субтитров: softsub (SRT)

MediaInfo

Общее
Полное имя : C:\Documents and Settings\Пользователь\Рабочий стол\Торрентс.ру\Cadillac.Records.2008.BDRip.MVO.Sub_by_LBS\Cadillac.Records.2008.BDRip.MVO_by_LBS.avi
Формат : AVI
Формат/Информация : Audio Video Interleave
Размер файла : 1,45 Гбайт
Продолжительность : 1 ч. 48 м.
Общий поток : 1918 Кбит/сек
Режиссёр : Last Boy Scout
Программа кодирования : VirtualDubMod 1.5.10.3 | www.virtualdub-fr.org || (build 2550/release)
Правообладатель : torrentfilm.net 14.02.2014
Примечание : BDRip MVO(R5) + sub (тексты песен)
Видео
Идентификатор : 0
Формат : MPEG-4 Visual
Профиль формата : Advanced Simple@L5
Параметр BVOP формата : 1
Параметр QPel формата : Нет
Параметр GMC формата : Без точки перехода
Параметр матрицы формата : Выборочная
Идентификатор кодека : XVID
Идентификатор кодека/Подсказка : XviD
Продолжительность : 1 ч. 48 м.
Битрейт : 1461 Кбит/сек
Ширина : 720 пикселей
Высота : 304 пикселя
Соотношение сторон : 2,35:1
Частота кадров : 23,976 кадра/сек
Цветовое пространство : YUV
Субдискретизация насыщенности : 4:2:0
Битовая глубина : 8 бит
Тип развёртки : Прогрессивная
Метод сжатия : С потерями
Бит/(Пиксели*Кадры) : 0.278
Размер потока : 1,11 Гбайт (76%)
Библиотека кодирования : XviD 73
Аудио
Идентификатор : 1
Формат : AC-3
Формат/Информация : Audio Coding 3
Расширение режима : CM (complete main)
Параметр Endianness формата : Big
Идентификатор кодека : 2000
Продолжительность : 1 ч. 48 м.
Вид битрейта : Постоянный
Битрейт : 448 Кбит/сек
Каналы : 6 каналов
Расположение каналов : Front: L C R, Side: L R, LFE
Частота : 48,0 КГц
Битовая глубина : 16 бит
Метод сжатия : С потерями
Размер потока : 348 Мбайт (23%)
Выравнивание : Разделение по промежуткам
Продолжительность промежутка : 42 мс. (1,00 видеокадр)
Время предзагрузки промежутка : 500 мс.

Скриншоты

--
[Профиль] [ЛС]

Создавать темы 06-Авг-2015 23:09 (спустя 11 месяцев 20 дней)

Топик был перенесен из форума Фильмы до 2014 года в форум Фильмы до 2012 года
sergej644
 

Создавать темы 12-Июн-2016 08:51 (спустя 1 год 9 месяцев)

Топик был перенесен из форума Фильмы 2011 года в форум Фильмы 2006-2008 года
Russian Mafia
 
Кто просматривает тему:

Форум Тема Автор Размер
Фильмы до 2000 года Розовый Кадиллак / Pink Cadillac (1989) WEB-DLRip | P Шкипер 748 MB
Показать сообщения:    

Текущее время: Сегодня 20:07

Часовой пояс: GMT



Вы не можете начинать темы
Вы не можете отвечать на сообщения
Вы не можете редактировать свои сообщения
Вы не можете удалять свои сообщения
Вы не можете голосовать в опросах
Вы не можете прикреплять файлы к сообщениям
Вы не можете скачивать файлы