Кабинет / Parlor (2015) WEB-DL 720p | L2

 
Автор Сообщение

достали все ®

Пол:

Стаж: 1 год 8 месяцев

Сообщений: 6565



Награды: 12 (Подробнее)

Top Releaser 3 (Количество: 1) Mega Seeder 1 (Количество: 1) Mega Releaser 1 (Количество: 1)
Торрент-статистика

Создавать темы 16-Май-2015 10:56

[Цитировать]

Информация о фильме
Название: Кабинет
Оригинальное название: Parlor
Год выхода: 2015
Жанр: ужасы
Режиссер: Девон Даунс
В ролях: Роберт ЛаСардо, Джордан Джеймс Смит, Сара Фабел, Энтони Дель Негро, Клер Гарви, Тиффани ДеМарко, Джои Фишер, Бен Уэйлен, Бет Хамфрис, Ник Голдман
О фильме: Шестеро студентов колледжа отправляются на каникулы в Восточную Европу, но в погоне за весельем они попадают прямиком в лапы татуировщика-садиста, для которого наколки далеко не единственный источник доходов.

Выпущено: США
Продолжительность: 01:38:46
Озвучивание: Любительское (двухголосное) [den904 & DeadSno], перевод [Antonio]

Файл
Формат: MKV
Качество: WEB-DL 720p
Видео: 3920 kb/s, 1280x534
Аудио: Russian: AC3, 192 kb/s (2 ch) / English: AC3, 384 kb/s (6 ch)
Субтитры: English

MI

Format : Matroska
Format version : Version 4 / Version 2
File size : 3.16 GiB
Duration : 1h 38mn
Overall bit rate : 4 587 Kbps
Encoded date : UTC 2015-05-16 06:38:26
Writing application : mkvmerge v6.1.0 ('Old Devil') built on Mar 4 2013 09:10:42
Writing library : libebml v1.3.0 + libmatroska v1.4.0
Video
ID : 1
Format : AVC
Format/Info : Advanced Video Codec
Format profile : Main@L3.1
Format settings, CABAC : No
Format settings, ReFrames : 2 frames
Codec ID : V_MPEG4/ISO/AVC
Duration : 1h 38mn
Bit rate : 3 920 Kbps
Width : 1 280 pixels
Height : 534 pixels
Display aspect ratio : 2.40:1
Frame rate : 23.976 fps
Color space : YUV
Chroma subsampling : 4:2:0
Bit depth : 8 bits
Scan type : Progressive
Bits/(Pixel*Frame) : 0.239
Stream size : 2.70 GiB (85%)
Language : English
Default : Yes
Forced : No
Color primaries : BT.709-5, BT.1361, IEC 61966-2-4, SMPTE RP177
Transfer characteristics : BT.709-5, BT.1361
Matrix coefficients : BT.709-5, BT.1361, IEC 61966-2-4 709, SMPTE RP177
Audio #1
ID : 2
Format : AC-3
Format/Info : Audio Coding 3
Mode extension : CM (complete main)
Format settings, Endianness : Big
Codec ID : A_AC3
Duration : 1h 38mn
Bit rate mode : Constant
Bit rate : 192 Kbps
Channel(s) : 2 channels
Channel positions : Front: L R
Sampling rate : 48.0 KHz
Bit depth : 16 bits
Compression mode : Lossy
Stream size : 136 MiB (4%)
Language : Russian
Default : Yes
Forced : No
Audio #2
ID : 3
Format : AC-3
Format/Info : Audio Coding 3
Mode extension : CM (complete main)
Format settings, Endianness : Big
Codec ID : A_AC3
Duration : 1h 38mn
Bit rate mode : Constant
Bit rate : 384 Kbps
Channel(s) : 6 channels
Channel positions : Front: L C R, Side: L R, LFE
Sampling rate : 48.0 KHz
Bit depth : 16 bits
Compression mode : Lossy
Stream size : 271 MiB (8%)
Language : English
Default : No
Forced : No
Text
ID : 4
Format : UTF-8
Codec ID : S_TEXT/UTF8
Codec ID/Info : UTF-8 Plain Text
Language : English
Default : No
Forced : No
Menu
00:00:00.000 : en:Chapter 1
00:08:47.000 : en:Chapter 2
00:16:33.000 : en:Chapter 3
00:23:05.000 : en:Chapter 4
00:30:20.000 : en:Chapter 5
00:40:32.000 : en:Chapter 6
00:47:04.000 : en:Chapter 7
00:54:18.000 : en:Chapter 8
01:01:48.000 : en:Chapter 9
01:09:15.000 : en:Chapter 10
01:17:52.000 : en:Chapter 11
01:26:39.000 : en:Chapter 12
01:35:07.000 : en:Chapter 13

Скриншоты



[Профиль] [ЛС]
Показать сообщения:    

Текущее время: Сегодня 18:15

Часовой пояс: GMT



Вы не можете начинать темы
Вы не можете отвечать на сообщения
Вы не можете редактировать свои сообщения
Вы не можете удалять свои сообщения
Вы не можете голосовать в опросах
Вы не можете прикреплять файлы к сообщениям
Вы не можете скачивать файлы