И смех и грех (Иван Давыдов) [1978 г., мультфильм, DVB]

 
Автор Сообщение

TorrentFilm ®

Пол:

Стаж: 2 года

Сообщений: 7741



Награды: Нет

Торрент-статистика

Создавать темы 04-Янв-2016 00:02

[Цитировать]

И смех и грех
Жанр: мультфильм
Год выпуска: 1978
Продолжительность: 00:09:39
Режиссёр: Иван Давыдов
Описание: мультфильм про бытовые неурядицы наших дней подтверждают истинность старинных народных пословиц ...
Доп. информация:

Релиз группы:
Качество видео: DVB
Формат видео: MPEG-PS
Видео: MPEG2 Video, 720x576 (4:3), 25 fps, 4700 kbps
Аудио: MPEG Audiо, 2 сh, 48 kHz, 192 kbps
Трансляция спутникового канала:

MediaInfo

D:\Зеркальце. (1967)_DVB by SLuMeP.mpg
General
Complete name : D:\Зеркальце. (1967)_DVB by SLuMeP.mpg
Format : MPEG-PS
File size : 348 MiB
Duration : 9mn 39s
Overall bit rate mode : Variable
Overall bit rate : 5 041 Kbps
Video #224
ID : 224 (0xE0)
Format : MPEG Video
Format version : Version 2
Format profile : Main@Main
Format settings, BVOP : Yes
Format settings, Matrix : Custom
Format settings, GOP : M=3, N=18
Duration : 9mn 39s
Bit rate mode : Variable
Bit rate : 4 749 Kbps
Maximum bit rate : 15.0 Mbps
Width : 720 pixels
Height : 576 pixels
Display aspect ratio : 4:3
Frame rate : 25.000 fps
Standard : PAL
Color space : YUV
Chroma subsampling : 4:2:0
Bit depth : 8 bits
Scan type : Interlaced
Scan order : Top Field First
Compression mode : Lossy
Bits/(Pixel*Frame) : 0.458
Stream size : 328 MiB (94%)
Audio #192
ID : 192 (0xC0)
Format : MPEG Audio
Format version : Version 1
Format profile : Layer 2
Duration : 9mn 39s
Bit rate mode : Constant
Bit rate : 192 Kbps
Channel(s) : 2 channels
Sampling rate : 48.0 KHz
Compression mode : Lossy
Stream size : 13.3 MiB (4%)

Скриншоты


[Профиль] [ЛС]
Кто просматривает тему:

Показать сообщения:    

Текущее время: Сегодня 22:42

Часовой пояс: GMT



Вы не можете начинать темы
Вы не можете отвечать на сообщения
Вы не можете редактировать свои сообщения
Вы не можете удалять свои сообщения
Вы не можете голосовать в опросах
Вы не можете прикреплять файлы к сообщениям
Вы не можете скачивать файлы