И опустится ночь / Night will fall (Андре Сингер / André Singer) [2014, Документальный, WEB-DL 720p]

 
Автор Сообщение

TorrentFilm ®

Пол:

Стаж: 2 года

Сообщений: 7741



Награды: Нет

Торрент-статистика

Создавать темы 09-Май-2015 00:03

[Цитировать]

И опустится ночь / Night will fall
Год выпуска: 2014
Страна: Великобритания, Германия, Франция, Израиль, США, Дания
Жанр: Документальный
Продолжительность: 01:18:04
Перевод: Субтитры (самолепные)
Режиссер: Андре Сингер / André Singer
Описание: В 1945 году во время освобождения нацистских лагерей союзные войска увидели страшную картину: трупы покрывали землю, кое-где дым поднимался над недогоревшими обугленными телами, бараки были наполнены мертвыми. Отступая, немцы спешили уничтожить следы преступлений. Операторы союзников запечатлели на пленку, возможно, самые шокирующие кадры ХХ века.
Пользуясь кинохроникой британской, американской и советской армий режиссер Сидни Бернштейн создает документальный фильм, обличающий результат того, что происходило на территории нацистских концлагерей. Участие в работе над фильмом также принимал Альфред Хичкок, который вносил правки в черновую сборку и план монтажа. Рассказывают, что мастер триллера был настолько потрясен кадрами освобождения Берген-Бельзена, что неделю не появлялся на студии. Фильм также включает сцены освобождения Дахау, Бухенвальда и ряда других концлагерей.
К 70-летию освобождения Европы от нацизма пленки отреставрировали и подготовили фильм в редакции, задуманной Бернштейном и Хичкоком. Кроме того, авторы новой версии разыскали тех немногих, кто выжил в лагерях и попал в хронику 45-го года. Ключевую роль в работе над изданием сыграл Андре Сингер - исполнительный продюсер фильма «Акта убийства» (номинация на «Оскар-2014», лауреат BAFTA, Berlinale, CPH:DOX, European Film Awards и др.).
Раздача посвящена 70-летию событий и победе прогрессивного человечества над силами зла.
Дополнительно: На некоторых телеканалах этот фильм транслировался с несколько другим началом и с добавлением в название слова "Холокост", что скорее всего было сделано ради громкого анонса фильму, т.к. акцента на холокост в самом фильме нет (в частности, в таком виде его можно найти на Ютюбе). Так же нужно понимать, что фильм английско-европейский и делать на это некоторую скиду при просмотре.
ВНИМАНИЕ!!! ВОЗРАСТНОЕ ОГРАНИЧЕНИЕ СТРОГО 15+
Уважаемые дети, на этот раз это ограничение не из-за сисек/писек. Вам не нужна эта раздача. Просто поверьте.

Сэмпл: http://multi-up.com/1046024
Тип релиза: WEB-DL 720p
Контейнер: MKV
Видео: MPEG4, 1280x720p23,976, 16:9, 4200kbps
Аудио: English: AC3, 5.1ch, 48kHz/16bit, 384kbps
Субтитры: Русские (SRT), English (SRT)

MediaInfo

Общее
Уникальный идентификатор                 : 232194343529011837304000555318733679788 (0xAEAF0100603C2635ACB5CB57F2BBACAC)
Полное имя                               : NightWillFall.720p.mkv
Формат                                   : Matroska
Версия формата                           : Version 4 / Version 2
Размер файла                             : 2,56 Гбайт
Продолжительность                        : 1 ч. 18 м.
Общий поток                              : 4686 Кбит/сек
Дата кодирования                         : UTC 2015-04-28 18:00:01
Программа кодирования                    : mkvmerge v6.8.0 ('Theme for Great Cities') 64bit built on Mar  2 2014 21:34:26
Библиотека кодирования                   : libebml v1.3.0 + libmatroska v1.4.1
Видео
Идентификатор                            : 1
Формат                                   : AVC
Формат/Информация                        : Advanced Video Codec
Профиль формата                          : High@L4.1
Параметр CABAC формата                   : Да
Параметр ReFrames формата                : 5 кадров
Идентификатор кодека                     : V_MPEG4/ISO/AVC
Продолжительность                        : 1 ч. 18 м.
Битрейт                                  : 4209 Кбит/сек
Ширина                                   : 1280 пикселей
Высота                                   : 720 пикселей
Соотношение сторон                       : 16:9
Режим частоты кадров                     : Постоянный
Частота кадров                           : 23,976 кадра/сек
Цветовое пространство                    : YUV
Субдискретизация насыщенности            : 4:2:0
Битовая глубина                          : 8 бит
Тип развёртки                            : Прогрессивная
Бит/(Пиксели*Кадры)                      : 0.190
Размер потока                            : 2,29 Гбайт (90%)
Язык                                     : English
Default                                  : Да
Forced                                   : Нет
Коэффициенты матрицы                     : BT.709
Аудио
Идентификатор                            : 2
Формат                                   : AC-3
Формат/Информация                        : Audio Coding 3
Расширение режима                        : CM (complete main)
Параметр Endianness формата              : Big
Идентификатор кодека                     : A_AC3
Продолжительность                        : 1 ч. 18 м.
Вид битрейта                             : Постоянный
Битрейт                                  : 384 Кбит/сек
Каналы                                   : 6 каналов
Расположение каналов                     : Front: L C R, Side: L R, LFE
Частота                                  : 48,0 КГц
Битовая глубина                          : 16 бит
Метод сжатия                             : С потерями
Размер потока                            : 214 Мбайт (8%)
Язык                                     : English
Default                                  : Да
Forced                                   : Нет
Текст #1
Идентификатор                            : 3
Формат                                   : UTF-8
Идентификатор кодека                     : S_TEXT/UTF8
Идентификатор кодека/Информация          : UTF-8 Plain Text
Язык                                     : Russian
Default                                  : Да
Forced                                   : Да
Текст #2
Идентификатор                            : 4
Формат                                   : UTF-8
Идентификатор кодека                     : S_TEXT/UTF8
Идентификатор кодека/Информация          : UTF-8 Plain Text
Язык                                     : English
Default                                  : Нет
Forced                                   : Нет
Меню
00:00:00.000                             : :
00:01:41.300                             : :
00:15:42.310                             : :
00:29:54.330                             : :
00:49:38.100                             : :
01:05:03.140                             : :

Скриншоты

[Профиль] [ЛС]
Кто просматривает тему:

Показать сообщения:    

Текущее время: Сегодня 22:23

Часовой пояс: GMT



Вы не можете начинать темы
Вы не можете отвечать на сообщения
Вы не можете редактировать свои сообщения
Вы не можете удалять свои сообщения
Вы не можете голосовать в опросах
Вы не можете прикреплять файлы к сообщениям
Вы не можете скачивать файлы