И никого не стало / And Then There Were None [S01] (2015) WEB-DLRip | КПК | LostFilm

 
Автор Сообщение

достали все ®

Пол:

Стаж: 1 год 8 месяцев

Сообщений: 6565



Награды: 12 (Подробнее)

Mega Seeder 4 (Количество: 1) Mega Seeder 5 (Количество: 1) Top Releaser 3 (Количество: 1)
Торрент-статистика

Создавать темы 07-Янв-2016 05:23

[Цитировать]

• И никого не стало / And Then There Were None • Страна: Великобритания
Производство: A&E Television Networks Inc., Acorn Productions, Agatha Christie Productions, BBC Television Centre, Mammoth Screen
Год выпуска: 2015
Жанр: триллер, драма, криминал, детектив
Режиссёр: Крэйг Вивейрос
В ролях: Катрин Бэйли, Дуглас Бут, Чарльз Дэнс, Мейв Дермоди, Берн Горман, Кристофер Хатрэлл, Анна Максвелл Мартин, Сэм Нил, Миранда Ричардсон, Тоби Стивенс и др.
Перевод: Профессиональный (многоголосый закадровый) от LostFilm
Описание: Восемь незнакомых друг с другом человек оказываются приглашенными супругами Оуэн в великолепный замок, расположенный на острове. Собравшись за большим обеденным столом, гости с удивлением узнают, что хозяев нет в доме, а единственные живущие здесь — семейная пара слуг. Именно они ставят собравшимся граммофонную запись, которая обвиняет всех в убийствах. Неизвестный голос обещает всем соответствующее их преступлению наказание. Гости, которые не могут уехать с острова, оказываются в ловушке. Кто-то начинает убивать по очереди всех, кто собрался в замке…

Качество: WEB-DLRip
Продолжительность: по ~ 00:55:00
Формат: MP4
Видео кодек: H.264 AVC
Аудио кодек: AAC-LC
Свойства видео: 640x360 (16:9), 23.976 fps, 500 kbps (0.091 bit/pixel)
Свойства аудио: 48.0 KHz, 2 ch, 128 kbps

MediaInfo

General
Complete name : And.Then.There.Were.None.S01E01.WEB-DLRip.rus.LostFilm.mp4
Format : MPEG-4
Format profile : Base Media
Codec ID : isom (isom/avc1/iso6)
File size : 254 MiB
Duration : 56mn 7s
Overall bit rate mode : Variable
Overall bit rate : 632 Kbps
Encoded date : UTC 2016-01-01 17:40:05
Tagged date : UTC 2016-01-01 17:40:05
Video
ID : 1
Format : AVC
Format/Info : Advanced Video Codec
Format profile : High@L4.1
Format settings, CABAC : Yes
Format settings, ReFrames : 9 frames
Codec ID : avc1
Codec ID/Info : Advanced Video Coding
Duration : 56mn 7s
Bit rate : 500 Kbps
Maximum bit rate : 2 300 Kbps
Width : 640 pixels
Height : 360 pixels
Display aspect ratio : 16:9
Frame rate mode : Constant
Frame rate : 23.976 (24000/1001) fps
Color space : YUV
Chroma subsampling : 4:2:0
Bit depth : 8 bits
Scan type : Progressive
Bits/(Pixel*Frame) : 0.091
Stream size : 201 MiB (79%)
Title : 264@GPAC0.5.2-DEV-rev248-g39d5978-master
Writing library : x264 core 146 r2538 121396c
Encoding settings : cabac=1 / ref=9 / deblock=1:-3:-3 / analyse=0x3:0x113 / me=umh / subme=11 / psy=1 / psy_rd=1.00:0.00 / mixed_ref=1 / me_range=32 / chroma_me=1 / trellis=2 / 8x8dct=1 / cqm=0 / deadzone=21,11 / fast_pskip=0 / chroma_qp_offset=-2 / threads=6 / lookahead_threads=1 / sliced_threads=0 / nr=0 / decimate=0 / interlaced=0 / bluray_compat=0 / constrained_intra=0 / bframes=9 / b_pyramid=2 / b_adapt=2 / b_bias=0 / direct=3 / weightb=1 / open_gop=0 / weightp=2 / keyint=240 / keyint_min=23 / scenecut=40 / intra_refresh=0 / rc=2pass / mbtree=0 / bitrate=500 / ratetol=1.0 / qcomp=0.60 / qpmin=0 / qpmax=69 / qpstep=4 / cplxblur=20.0 / qblur=0.5 / ip_ratio=1.40 / pb_ratio=1.30 / aq=1:1.00
Encoded date : UTC 2016-01-01 17:40:05
Tagged date : UTC 2016-01-01 17:40:24
Audio
ID : 2
Format : AAC
Format/Info : Advanced Audio Codec
Format profile : LC
Codec ID : 40
Duration : 56mn 7s
Bit rate mode : Variable
Bit rate : 128 Kbps
Maximum bit rate : 145 Kbps
Channel(s) : 2 channels
Channel positions : Front: L R
Sampling rate : 48.0 KHz
Frame rate : 46.875 fps (1024 spf)
Compression mode : Lossy
Stream size : 51.4 MiB (20%)
Encoded date : UTC 2016-01-01 15:51:36
Tagged date : UTC 2016-01-01 17:40:24

Скриншоты

[Профиль] [ЛС]
Кто просматривает тему:

Показать сообщения:    

Текущее время: Сегодня 16:21

Часовой пояс: GMT



Вы не можете начинать темы
Вы не можете отвечать на сообщения
Вы не можете редактировать свои сообщения
Вы не можете удалять свои сообщения
Вы не можете голосовать в опросах
Вы не можете прикреплять файлы к сообщениям
Вы не можете скачивать файлы